<?xml version="1.0" standalone="no"?>
<!DOCTYPE svg PUBLIC "-//W3C//DTD SVG 1.1//EN" "http://www.w3.org/Graphics/SVG/1.1/DTD/svg11.dtd" >
<svg xmlns="http://www.w3.org/2000/svg" xmlns:xlink="http://www.w3.org/1999/xlink" version="1.1">
<metadata>
Created by FontForge 20170731 at Wed Aug  9 15:51:32 2023
 By Aleksey,,,
Copyright (c) 2019 by Svet Simov. All rights reserved.
</metadata>
<defs>
<font id="Noah-Bold" horiz-adv-x="0" >
  <font-face 
    font-family="Noah"
    font-weight="700"
    font-stretch="normal"
    units-per-em="2048"
    panose-1="0 0 8 0 0 0 0 0 0 0"
    ascent="1638"
    descent="-410"
    x-height="913"
    cap-height="1393"
    bbox="-772 -602 2527 1980"
    underline-thickness="102"
    underline-position="-307"
    unicode-range="U+0020-FB02"
  />
<missing-glyph horiz-adv-x="956" 
d="M784 1460v-1911h-606v1911h606zM637 1331h-315v-61h122v-72h-125v-63h318v63h-127v72h127v61zM510 1085h-191v-198h318v65h-127v133zM444 1020v-68h-61v68h61zM637 836h-318v-64h125v-70h-125v-63h191v133h127v64zM637 721h-64v-127h-254v-64h318v191zM637 487h-193v-106
h66v43h63v-90h-190v153h-64v-215h318v215zM637 158h-318v-217h318v217zM573 94v-90h-190v90h190zM637 -102h-318v-64h134l-134 -90v-63h318v63h-195l133 90h62v64z" />
    <glyph glyph-name="fi" unicode="fi" horiz-adv-x="1210" 
d="M1079 913v-913h-223v723h-434v-723h-223v723h-168v190h168v197q0 190 102.5 291.5t292.5 101.5q123 0 223 -35t197 -108l-86 -154q-71 49 -138.5 73t-152.5 24q-215 0 -215 -207v-183h657z" />
    <glyph glyph-name="fl" unicode="fl" horiz-adv-x="1193" 
d="M885 1475h178v-1475h-223v1229q-103 74 -228 74q-90 0 -140 -48.5t-50 -144.5v-197h250v-190h-250v-723h-223v723h-168v190h168v213q0 174 98 275.5t272 101.5q169 0 297 -100z" />
    <glyph glyph-name="f_f" unicode="ff" horiz-adv-x="1400" 
d="M1268 1303q-65 0 -104.5 -42t-39.5 -118v-230h250v-190h-248v-723h-223v723h-481v-723h-223v723h-168v190h168v242q0 158 85.5 253t239.5 95q123 0 238 -53l-64 -172q-64 25 -129 25q-67 0 -107 -41.5t-40 -118.5v-230h481v242q0 158 85.5 253t236.5 95q136 0 258 -80
l-80 -159q-67 39 -135 39z" />
    <glyph glyph-name="f_f_i" unicode="ffi" horiz-adv-x="1918" 
d="M1788 913v-913h-223v723h-439v-723h-223v723h-481v-723h-223v723h-168v190h168v242q0 158 85.5 253t239.5 95q121 0 238 -53l-64 -172q-64 25 -127 25q-70 0 -109.5 -41.5t-39.5 -118.5v-230h481v197q0 190 102.5 291.5t294.5 101.5q117 0 211 -35t183 -108l-86 -150
q-66 47 -126.5 70t-138.5 23q-219 0 -219 -205v-185h664z" />
    <glyph glyph-name="f_f_l" unicode="ffl" horiz-adv-x="1918" 
d="M1610 1475h178v-1475h-223v1223q-111 80 -250 80q-90 0 -140.5 -49t-50.5 -150v-191h242v-190h-240v-723h-223v723h-481v-723h-223v723h-168v190h168v242q0 158 85.5 253t239.5 95q123 0 238 -53l-64 -172q-55 25 -129 25q-67 0 -107 -41.5t-40 -118.5v-230h481v211
q0 175 97.5 277t273.5 102q186 0 317 -108z" />
    <glyph glyph-name=".notdef" horiz-adv-x="956" 
d="M784 1460v-1911h-606v1911h606zM637 1331h-315v-61h122v-72h-125v-63h318v63h-127v72h127v61zM510 1085h-191v-198h318v65h-127v133zM444 1020v-68h-61v68h61zM637 836h-318v-64h125v-70h-125v-63h191v133h127v64zM637 721h-64v-127h-254v-64h318v191zM637 487h-193v-106
h66v43h63v-90h-190v153h-64v-215h318v215zM637 158h-318v-217h318v217zM573 94v-90h-190v90h190zM637 -102h-318v-64h134l-134 -90v-63h318v63h-195l133 90h62v64z" />
    <glyph glyph-name=".null" 
 />
    <glyph glyph-name="nonmarkingreturn" horiz-adv-x="682" 
 />
    <glyph glyph-name="space" unicode=" " horiz-adv-x="460" 
 />
    <glyph glyph-name="exclam" unicode="!" horiz-adv-x="563" 
d="M180 385l-26 1008h256l-27 -1008h-203zM283 -25q-60 0 -103 37t-43 105q0 69 43 106t103 37q59 0 101 -37t42 -106q0 -68 -42 -105t-101 -37z" />
    <glyph glyph-name="quotedbl" unicode="&#x22;" horiz-adv-x="733" 
d="M88 930v463h217l-41 -463h-176zM430 930v463h215l-41 -463h-174z" />
    <glyph glyph-name="numbersign" unicode="#" horiz-adv-x="1134" 
d="M170 0l55 369h-166v176h191l39 258h-172v176h198l62 414h192l-61 -414h221l66 414h190l-63 -414h155v-176h-180l-39 -258h160v-176h-187l-53 -369h-192l53 369h-223l-54 -369h-192zM442 545h224l39 258h-224z" />
    <glyph glyph-name="dollar" unicode="$" horiz-adv-x="1101" 
d="M483 -207v189q-238 20 -422 165l119 175q175 -138 389 -138q104 0 169 47t65 119q0 23 -6 44t-13.5 37.5t-25.5 34t-29.5 29t-40 27.5t-42 23.5t-49 23t-49 21t-54.5 22.5q-86 35 -147.5 69t-118.5 82t-86 110t-29 137q0 157 102 253t268 117v187h172v-187
q183 -22 340 -131l-98 -182q-153 111 -326 111q-57 0 -104.5 -14.5t-81 -51.5t-33.5 -92q0 -32 16 -61t39.5 -50t65 -43.5t77.5 -37.5t93 -37q73 -30 122 -53.5t106.5 -61.5t91 -78.5t56.5 -99.5t23 -129q0 -159 -105.5 -263.5t-281.5 -123.5v-189h-172z" />
    <glyph glyph-name="percent" unicode="%" horiz-adv-x="1579" 
d="M383 788q-150 0 -235 93.5t-85 222.5q0 82 35 151.5t109.5 115.5t175.5 46q100 0 174.5 -46t109.5 -116t35 -151q0 -82 -35 -152.5t-109.5 -117t-174.5 -46.5zM297 0l803 1393h192l-800 -1393h-195zM383 944q73 0 108 48.5t35 111.5t-35 111.5t-108 48.5t-108 -48.5
t-35 -111.5t35 -111.5t108 -48.5zM1196 -25q-101 0 -175 46.5t-108 116t-34 151.5q0 129 83.5 222t233.5 93t235 -93t85 -222q0 -82 -35 -152t-109.5 -116t-175.5 -46zM1196 129q51 0 85 26t46 60t12 74t-12 74t-46 60t-85 26q-73 0 -108 -48.5t-35 -111.5t35 -111.5
t108 -48.5z" />
    <glyph glyph-name="ampersand" unicode="&#x26;" horiz-adv-x="1304" 
d="M518 -25q-202 0 -317 100.5t-115 248.5q0 251 276 419q-149 172 -149 320q0 149 109.5 251.5t289.5 102.5q157 0 255 -91t98 -226q0 -62 -23.5 -118t-68.5 -104.5t-97 -87.5t-123 -81l269 -275q76 148 79 295h207q-2 -110 -39 -229t-104 -219l242 -258l-209 -48l-158 168
q-82 -76 -191 -122t-231 -46zM530 852q42 24 69.5 40.5t60 41t51 46.5t31 51t12.5 61q0 54 -42 92.5t-112 38.5q-81 0 -126.5 -46.5t-45.5 -113.5q0 -53 24 -101t78 -110zM528 174q148 0 273 119l-303 307q-89 -49 -135 -117t-46 -137q0 -71 57 -121.5t154 -50.5z" />
    <glyph glyph-name="quotesingle" unicode="'" horiz-adv-x="391" 
d="M88 930v463h217l-41 -463h-176z" />
    <glyph glyph-name="parenleft" unicode="(" horiz-adv-x="651" 
d="M463 -395q-149 172 -237.5 432t-88.5 549t88.5 549t237.5 432l135 -115q-122 -154 -190 -382t-68 -484t68 -484.5t190 -382.5z" />
    <glyph glyph-name="parenright" unicode=")" horiz-adv-x="651" 
d="M188 1567q150 -173 239 -432.5t89 -548.5t-89 -548.5t-239 -432.5l-133 114q120 154 188 382.5t68 484.5q0 255 -67.5 483.5t-188.5 382.5z" />
    <glyph glyph-name="asterisk" unicode="*" horiz-adv-x="724" 
d="M219 772l-117 88l158 191l-221 57l45 139l215 -82l-10 228h147l-10 -228l215 82l45 -139l-221 -57l158 -191l-117 -88l-144 207z" />
    <glyph glyph-name="plus" unicode="+" horiz-adv-x="1089" 
d="M449 276v326h-322v184h322v326h192v-326h322v-184h-322v-326h-192z" />
    <glyph glyph-name="comma" unicode="," horiz-adv-x="550" 
d="M272 260q66 0 107 -45t41 -131q0 -113 -55 -212t-156 -173l-57 59q58 53 92 104.5t45 112.5h-17q-60 0 -101.5 38t-41.5 104q0 69 42.5 106t100.5 37z" />
    <glyph glyph-name="hyphen" unicode="-" horiz-adv-x="796" 
d="M111 369v192h575v-192h-575z" />
    <glyph glyph-name="period" unicode="." horiz-adv-x="548" 
d="M274 -25q-59 0 -102 37t-43 105q0 69 43 106t102 37t102.5 -37t43.5 -106q0 -68 -43.5 -105t-102.5 -37z" />
    <glyph glyph-name="slash" unicode="/" horiz-adv-x="825" 
d="M231 -25h-176l541 1442h174z" />
    <glyph glyph-name="zero" unicode="0" horiz-adv-x="1196" 
d="M598 -25q-233 0 -366.5 189t-133.5 514t133.5 512.5t366.5 187.5t366.5 -187.5t133.5 -512.5t-133.5 -514t-366.5 -189zM598 186q125 0 191.5 132.5t66.5 359.5t-66.5 359t-191.5 132t-191.5 -132t-66.5 -359t66.5 -359.5t191.5 -132.5z" />
    <glyph glyph-name="one" unicode="1" horiz-adv-x="761" 
d="M461 1368h131v-1368h-238v961q0 28 4 94q-18 -13 -47 -29l-184 -106l-96 176z" />
    <glyph glyph-name="two" unicode="2" horiz-adv-x="993" 
d="M551 207h377v-207h-865v90l480 643q62 86 88 142t26 108q0 78 -47 127t-127 49q-135 0 -247 -151l-160 122q162 248 426 248q180 0 289.5 -106t109.5 -264q0 -97 -39 -183t-143 -223l-221 -297q-44 -60 -82 -100q47 2 135 2z" />
    <glyph glyph-name="three" unicode="3" horiz-adv-x="1093" 
d="M502 -25q-131 0 -247 54t-202 151l137 144q131 -138 299 -138q126 0 201.5 60t75.5 155q0 57 -24 98.5t-64.5 64t-86.5 32.5t-99 10h-175v197h148q118 0 181 56.5t63 135.5q0 76 -58 126t-153 50q-152 0 -279 -127l-133 132q93 103 199 152.5t237 49.5
q187 0 304.5 -100.5t117.5 -253.5q0 -92 -50 -174.5t-140 -128.5q126 -42 189 -135t63 -207q0 -177 -139.5 -290.5t-364.5 -113.5z" />
    <glyph glyph-name="four" unicode="4" horiz-adv-x="1091" 
d="M895 451h154v-195h-154v-256h-221v256h-641v125l729 987h133v-917zM680 451v340q0 109 6 170q-50 -79 -86 -125l-209 -287q-63 -82 -78 -100q47 2 140 2h227z" />
    <glyph glyph-name="five" unicode="5" horiz-adv-x="1003" 
d="M473 854q209 0 338 -114.5t129 -313.5q0 -201 -138 -327t-356 -126q-251 0 -411 174l121 166q105 -123 280 -123q119 0 190.5 66t71.5 176q0 123 -84.5 182.5t-220.5 59.5q-123 0 -221 -37l-37 25l80 692h678v-207h-485l-39 -299q55 6 104 6z" />
    <glyph glyph-name="six" unicode="6" horiz-adv-x="1093" 
d="M606 844q177 0 296.5 -111t119.5 -307q0 -200 -126 -325.5t-329 -125.5q-118 0 -209 41t-147.5 114.5t-85.5 169t-29 208.5v22q0 370 187 594t567 254l27 -198q-233 -18 -370.5 -132t-170.5 -303q96 99 270 99zM563 186q97 0 161 64.5t64 169.5q0 111 -63.5 170
t-161.5 59q-105 0 -168 -61.5t-63 -171.5q0 -103 64 -166.5t167 -63.5z" />
    <glyph glyph-name="seven" unicode="7" horiz-adv-x="927" 
d="M37 1354h856v-88l-477 -1266h-246l383 1018q10 30 28.5 75.5t22.5 55.5q-49 -2 -149 -2h-418v207z" />
    <glyph glyph-name="eight" unicode="8" horiz-adv-x="1144" 
d="M573 -23q-223 0 -354 108t-131 292q0 120 67.5 212.5t182.5 127.5q-93 32 -150 108.5t-57 186.5q0 163 122.5 264.5t321.5 101.5q197 0 318 -101.5t121 -264.5q0 -105 -56 -181t-145 -114q106 -36 175 -129.5t69 -212.5q0 -184 -131 -291t-353 -107zM575 813
q96 0 153.5 52t57.5 136q0 81 -58.5 131t-152.5 50q-96 0 -155.5 -50t-59.5 -131q0 -86 58 -137t157 -51zM573 184q107 0 175.5 55.5t68.5 155.5q0 101 -66.5 161t-181.5 60q-108 0 -174.5 -62t-66.5 -159q0 -98 70 -154.5t175 -56.5z" />
    <glyph glyph-name="nine" unicode="9" horiz-adv-x="1097" 
d="M528 1378q120 0 213 -43t149.5 -119t85 -173t28.5 -212q0 -181 -44.5 -329t-134.5 -261.5t-236 -182t-341 -83.5l-29 201q233 17 370.5 130t172.5 300q-99 -96 -275 -96q-174 0 -291.5 111.5t-117.5 308.5q0 199 124 323.5t326 124.5zM535 705q105 0 168 61.5t63 171.5
q0 102 -64.5 165.5t-166.5 63.5q-97 0 -161.5 -64t-64.5 -169q0 -110 64 -169.5t162 -59.5z" />
    <glyph glyph-name="colon" unicode=":" horiz-adv-x="542" 
d="M270 637q-58 0 -99.5 35.5t-41.5 103.5q0 66 41.5 101.5t99.5 35.5q59 0 101.5 -35.5t42.5 -101.5q0 -68 -42.5 -103.5t-101.5 -35.5zM270 -25q-58 0 -99.5 36t-41.5 104q0 66 42 102.5t99 36.5q59 0 101.5 -36.5t42.5 -102.5q0 -68 -42.5 -104t-101.5 -36z" />
    <glyph glyph-name="semicolon" unicode=";" horiz-adv-x="550" 
d="M272 639q-59 0 -100 35.5t-41 101.5q0 68 41 103.5t100 35.5q58 0 100 -36t42 -103q0 -66 -42 -101.5t-100 -35.5zM272 256q66 0 107 -44t41 -128q0 -113 -55 -212t-156 -173l-57 59q58 53 92 104.5t45 112.5h-17q-60 0 -101.5 38t-41.5 104t42.5 102.5t100.5 36.5z" />
    <glyph glyph-name="less" unicode="&#x3c;" horiz-adv-x="878" 
d="M772 315l-696 308v188l696 307v-213l-457 -188l457 -189v-213z" />
    <glyph glyph-name="equal" unicode="=" horiz-adv-x="1021" 
d="M127 799v186h768v-186h-768zM127 408v186h768v-186h-768z" />
    <glyph glyph-name="greater" unicode="&#x3e;" horiz-adv-x="878" 
d="M106 315v213l459 189l-459 188v213l697 -307v-188z" />
    <glyph glyph-name="question" unicode="?" horiz-adv-x="995" 
d="M326 385q-4 54 -4 76q0 59 11 110.5t25 85.5t41.5 73t45 58t51.5 54q52 50 75.5 76t45.5 67t22 82q0 58 -47 100.5t-131 42.5q-144 0 -240 -116l-135 149q86 89 181.5 131.5t219.5 42.5q177 0 285.5 -96.5t108.5 -228.5q0 -43 -11.5 -83t-26 -69t-45.5 -67.5t-50.5 -59.5
t-61.5 -62l-16 -16q-67 -65 -101 -128.5t-34 -162.5q0 -19 4 -59h-213zM434 -25q-59 0 -101 37t-42 105q0 69 42 106t101 37q60 0 103 -37t43 -106q0 -68 -43 -105t-103 -37z" />
    <glyph glyph-name="at" unicode="@" horiz-adv-x="1697" 
d="M778 -295q-196 0 -351.5 87t-244 246.5t-88.5 364.5q0 188 64 353.5t176 284t270.5 187t339.5 68.5q104 0 199.5 -24.5t179.5 -77t146.5 -127t98.5 -181.5t36 -235q0 -105 -23 -198.5t-66.5 -167t-114 -116t-159.5 -42.5q-69 0 -114.5 34.5t-63.5 92.5
q-34 -60 -109 -100.5t-168 -40.5q-132 0 -209 87.5t-77 219.5q0 130 53 235t155.5 167.5t235.5 62.5q143 0 273 -80l-39 -416q0 -5 -1 -15t-1 -14q0 -98 73 -98q51 0 91 34t62.5 89.5t34 119t11.5 130.5q0 130 -39.5 229.5t-109.5 160.5t-159.5 91.5t-195.5 30.5
q-197 0 -356 -98.5t-247.5 -266.5t-88.5 -370q0 -251 149 -406.5t383 -155.5q152 0 299 64l56 -131q-180 -78 -361 -78zM809 244q87 0 152 67t77 187l21 221q-59 26 -131 26q-119 0 -197 -91.5t-78 -223.5q0 -80 42 -133t114 -53z" />
    <glyph glyph-name="A" unicode="A" horiz-adv-x="1406" 
d="M741 1401l656 -1395v-6h-252l-115 252h-651l-115 -252h-254v4l658 1397h73zM705 1012q-45 -124 -95 -238l-151 -332h491l-151 332q-38 85 -94 238z" />
    <glyph glyph-name="B" unicode="B" horiz-adv-x="1288" 
d="M979 729q102 -45 161.5 -135.5t59.5 -208.5q0 -172 -121.5 -278.5t-314.5 -106.5h-594v1393h555q184 0 302 -101.5t118 -263.5q0 -97 -44 -173.5t-122 -125.5zM410 1194v-379h278q102 0 157.5 51t55.5 144q0 85 -59.5 134.5t-157.5 49.5h-274zM725 199q104 0 167.5 57
t63.5 154q0 95 -61.5 151.5t-161.5 56.5h-323v-419h315z" />
    <glyph glyph-name="C" unicode="C" horiz-adv-x="1417" 
d="M811 -27q-158 0 -293 57t-227.5 155t-144.5 231t-52 282q0 155 54 289t149 229t229.5 149t290.5 54q157 0 281.5 -49t242.5 -156l-124 -163q-162 149 -394 149q-213 0 -347 -140.5t-134 -361.5q0 -217 132 -361t341 -144q257 0 406 196l151 -156q-211 -260 -561 -260z
" />
    <glyph glyph-name="D" unicode="D" horiz-adv-x="1472" 
d="M170 0v1393h498q208 0 370 -89.5t251 -249t89 -360.5q0 -200 -87 -357.5t-249 -247t-372 -89.5h-500zM412 209h247q217 0 345.5 135t128.5 350q0 216 -129.5 353t-346.5 137h-245v-975z" />
    <glyph glyph-name="E" unicode="E" horiz-adv-x="1148" 
d="M412 213h653v-213h-895v1393h877v-213h-635v-369h555v-207h-555v-391z" />
    <glyph glyph-name="F" unicode="F" horiz-adv-x="1110" 
d="M170 0v1393h870v-224h-628v-401h563v-217h-563v-551h-242z" />
    <glyph glyph-name="G" unicode="G" horiz-adv-x="1499" 
d="M807 780h588v-551q-103 -125 -250 -190.5t-328 -65.5q-158 0 -293 55.5t-229.5 151.5t-147.5 230t-53 288q0 202 88 365t255 259.5t384 96.5q322 0 539 -223l-133 -160q-169 166 -398 166q-222 0 -355.5 -141t-133.5 -365q0 -228 138 -368t360 -140q211 0 342 134v258
h-373v200z" />
    <glyph glyph-name="H" unicode="H" horiz-adv-x="1501" 
d="M170 0v1393h242v-580h678v580h241v-1393h-241v590h-678v-590h-242z" />
    <glyph glyph-name="I" unicode="I" horiz-adv-x="581" 
d="M170 0v1393h242v-1393h-242z" />
    <glyph glyph-name="J" unicode="J" horiz-adv-x="1019" 
d="M412 -27q-227 0 -398 129l113 185q126 -99 268 -99q234 0 234 263v942h241v-942q0 -235 -117 -356.5t-341 -121.5z" />
    <glyph glyph-name="K" unicode="K" horiz-adv-x="1241" 
d="M637 702l592 -694v-8h-285l-532 623v-623h-242v1393h242v-625l499 625h275v-7z" />
    <glyph glyph-name="L" unicode="L" horiz-adv-x="1067" 
d="M170 0v1393h242v-1170h604v-223h-846z" />
    <glyph glyph-name="M" unicode="M" horiz-adv-x="1748" 
d="M1458 1403l205 -1403h-238l-110 754q-16 134 -17 141q-34 -62 -81 -131l-318 -483h-49l-315 483q-42 58 -86 135q0 -12 -17 -147l-106 -752h-238l205 1403h72l419 -643q35 -53 90 -146q46 78 91 146l421 643h72z" />
    <glyph glyph-name="N" unicode="N" horiz-adv-x="1533" 
d="M1124 1393h240v-1401h-94l-752 821q-83 87 -117 127q9 -115 9 -152v-788h-240v1401h92l729 -801q93 -97 139 -149q-6 102 -6 186v756z" />
    <glyph glyph-name="O" unicode="O" horiz-adv-x="1638" 
d="M819 -27q-209 0 -375.5 96t-258 261.5t-91.5 367.5q0 155 54 289t148.5 229t230 149t292.5 54q212 0 377.5 -92.5t256.5 -257t91 -371.5q0 -152 -53.5 -285.5t-147.5 -230.5t-230 -153t-294 -56zM819 193q143 0 253 68t168 182t58 255q0 220 -131 361t-348 141
q-215 0 -346 -141t-131 -361q0 -105 34 -197.5t95 -160.5t151 -107.5t197 -39.5z" />
    <glyph glyph-name="P" unicode="P" horiz-adv-x="1224" 
d="M170 0v1393h535q108 0 198 -38t147.5 -101t89 -143t31.5 -167q0 -86 -31 -164t-88.5 -139t-148.5 -97t-203 -36h-288v-508h-242zM412 715h262q124 0 189 67t65 164q0 101 -67.5 168.5t-180.5 67.5h-268v-467z" />
    <glyph glyph-name="Q" unicode="Q" horiz-adv-x="1638" 
d="M1546 -45l-147 -166l-299 234q-135 -50 -281 -50q-209 0 -375.5 96t-258 261.5t-91.5 367.5q0 155 54 289t148.5 229t230 149t292.5 54q212 0 377.5 -92.5t256.5 -257t91 -371.5q0 -167 -62.5 -309.5t-176.5 -241.5zM342 698q0 -105 34 -197.5t95 -160.5t151 -107.5
t197 -39.5q143 0 253 68t168 182t58 255q0 220 -131 361t-348 141q-215 0 -346 -141t-131 -361z" />
    <glyph glyph-name="R" unicode="R" horiz-adv-x="1280" 
d="M868 555l357 -549v-6h-275l-327 528h-211v-528h-242v1393h547q206 0 339.5 -124t133.5 -311q0 -146 -86 -253t-236 -150zM412 729h280q119 0 186.5 60.5t67.5 164.5q0 100 -69.5 165t-180.5 65h-284v-455z" />
    <glyph glyph-name="S" unicode="S" horiz-adv-x="1171" 
d="M598 -27q-143 0 -275 44t-235 126l113 189q79 -68 180 -106t209 -38q110 0 185 49.5t75 137.5q0 32 -10.5 59.5t-33 49.5t-47 39.5t-63 34t-70 28t-77.5 26.5q-416 136 -416 424q0 119 64.5 207.5t168.5 132t232 43.5q124 0 231.5 -33t221.5 -108l-105 -180
q-169 108 -336 108q-98 0 -164.5 -41t-66.5 -116q0 -37 17 -68.5t41 -53t66 -43t75 -34.5t86 -31q98 -31 170.5 -67.5t134 -87.5t93.5 -121t32 -156q0 -127 -67 -222t-178.5 -143.5t-250.5 -48.5z" />
    <glyph glyph-name="T" unicode="T" horiz-adv-x="1110" 
d="M1069 1393v-224h-393v-1169h-242v1169h-395v224h1030z" />
    <glyph glyph-name="U" unicode="U" horiz-adv-x="1415" 
d="M709 -27q-249 0 -404 138t-155 383v899h241v-883q0 -156 85.5 -236.5t232.5 -80.5q145 0 230 80.5t85 236.5v883h242v-899q0 -163 -72.5 -282.5t-197.5 -179t-287 -59.5z" />
    <glyph glyph-name="V" unicode="V" horiz-adv-x="1421" 
d="M1141 1393h266v-4l-659 -1397h-74l-660 1397v4h265l354 -775q55 -120 78 -190q47 128 80 195z" />
    <glyph glyph-name="W" unicode="W" horiz-adv-x="1976" 
d="M1694 1393h252v-7l-490 -1394h-72l-337 739q-35 71 -60 154q-37 -109 -59 -154l-338 -739h-72l-487 1394v7h254l243 -725q52 -164 62 -207q44 126 80 205l286 643h60l276 -615q48 -105 94 -231q13 54 70 221z" />
    <glyph glyph-name="X" unicode="X" horiz-adv-x="1316" 
d="M23 0v4l491 717l-451 668v4h279l195 -295q69 -103 125 -201q66 116 124 205l191 291h276v-4l-448 -668l489 -717v-4h-280l-232 348q-71 105 -123 197q-71 -125 -122 -197l-234 -348h-280z" />
    <glyph glyph-name="Y" unicode="Y" horiz-adv-x="1318" 
d="M1014 1393h274v-7l-508 -782v-604h-241v604l-508 782v7h274l250 -394q68 -110 107 -192q34 79 104 192z" />
    <glyph glyph-name="Z" unicode="Z" horiz-adv-x="1181" 
d="M74 0v72l588 954q14 21 44 70t48 75q-51 -2 -152 -2h-493v224h993v-72l-600 -973q-53 -87 -80 -127q47 2 133 2h553v-223h-1034z" />
    <glyph glyph-name="bracketleft" unicode="[" horiz-adv-x="563" 
d="M131 -383v1937h369v-184h-166v-1569h166v-184h-369z" />
    <glyph glyph-name="backslash" unicode="\" horiz-adv-x="825" 
d="M594 -25l-539 1442h174l541 -1442h-176z" />
    <glyph glyph-name="bracketright" unicode="]" horiz-adv-x="563" 
d="M432 -383h-369v184h166v1569h-166v184h369v-1937z" />
    <glyph glyph-name="asciicircum" unicode="^" horiz-adv-x="983" 
d="M59 688l347 705h161l357 -705h-228l-209 434l-202 -434h-226z" />
    <glyph glyph-name="underscore" unicode="_" horiz-adv-x="1007" 
d="M86 -223v172h834v-172h-834z" />
    <glyph glyph-name="grave" unicode="`" horiz-adv-x="606" 
d="M426 1067l-328 207l127 147l293 -250z" />
    <glyph glyph-name="a" unicode="a" horiz-adv-x="991" 
d="M496 930q177 0 276.5 -88t99.5 -252v-590h-149l-41 137q-110 -155 -326 -155q-128 0 -207 68.5t-79 187.5q0 154 124.5 238.5t337.5 84.5q49 0 115 -4v41q0 70 -48.5 105.5t-137.5 35.5q-133 0 -285 -73l-63 170q208 94 383 94zM422 150q100 0 164 70t67 192
q-56 6 -106 6q-122 0 -189 -41.5t-67 -116.5q0 -53 34.5 -81.5t96.5 -28.5z" />
    <glyph glyph-name="b" unicode="b" horiz-adv-x="1171" 
d="M653 936q193 0 317 -133.5t124 -339.5q0 -217 -122 -351.5t-319 -134.5q-208 0 -329 156l-37 -133h-156v1475h223v-408q0 -135 -6 -264q57 63 135.5 98t169.5 35zM610 172q117 0 187.5 78.5t70.5 206.5q0 126 -71.5 204t-186.5 78q-118 0 -191 -78t-73 -204
q0 -128 71.5 -206.5t192.5 -78.5z" />
    <glyph glyph-name="c" unicode="c" horiz-adv-x="944" 
d="M545 -27q-88 0 -171 31.5t-150.5 90t-108.5 153t-41 209.5q0 145 66 256t174.5 168t240.5 57q199 0 340 -123l-109 -149q-50 41 -99.5 59t-115.5 18q-118 0 -195 -79t-77 -207q0 -131 77 -209t191 -78q133 0 234 94l112 -149q-79 -73 -164.5 -107.5t-203.5 -34.5z" />
    <glyph glyph-name="d" unicode="d" horiz-adv-x="1171" 
d="M817 1475h223v-1475h-153l-39 137q-118 -160 -330 -160q-196 0 -318 134.5t-122 351.5q0 206 124 339.5t316 133.5q92 0 171.5 -34.5t133.5 -96.5q-6 126 -6 262v408zM563 172q119 0 190.5 78.5t71.5 206.5q0 126 -72 204t-190 78q-117 0 -188.5 -78t-71.5 -204
q0 -128 71.5 -206.5t188.5 -78.5z" />
    <glyph glyph-name="e" unicode="e" horiz-adv-x="1028" 
d="M545 938q193 0 304.5 -121.5t111.5 -327.5q0 -23 -9 -106h-655q21 -108 99.5 -166.5t191.5 -58.5q142 0 241 86l95 -144q-157 -127 -357 -127q-219 0 -356 135t-137 351q0 203 133 341t338 138zM541 756q-92 0 -158 -58.5t-84 -162.5h451q-4 106 -61.5 163.5t-147.5 57.5
z" />
    <glyph glyph-name="f" unicode="f" horiz-adv-x="698" 
d="M201 0v723h-170v190h170v242q0 158 85 253t238 95q134 0 256 -80l-80 -159q-67 39 -133 39t-105.5 -42t-39.5 -118v-230h252v-190h-250v-723h-223z" />
    <glyph glyph-name="g" unicode="g" horiz-adv-x="1171" 
d="M893 913h147v-950q0 -213 -130.5 -325.5t-348.5 -112.5q-243 0 -414 139l86 168q131 -106 310 -106q128 0 200 59t72 174q0 48 4 150q-119 -125 -303 -125q-195 0 -316.5 132.5t-121.5 342.5t121 343.5t313 133.5q104 0 191 -39.5t145 -116.5zM561 176q125 0 194.5 78.5
t69.5 204.5q0 125 -69 203.5t-193 78.5q-120 0 -189 -77.5t-69 -204.5q0 -126 69.5 -204.5t186.5 -78.5z" />
    <glyph glyph-name="h" unicode="h" horiz-adv-x="1077" 
d="M633 938q158 0 240.5 -96.5t82.5 -268.5v-573h-223v555q0 182 -158 182q-105 0 -163 -76t-58 -190v-471h-223v1475h223v-545q0 -84 -2 -139q93 147 281 147z" />
    <glyph glyph-name="i" unicode="i" horiz-adv-x="485" 
d="M244 1104q-63 0 -101.5 38t-38.5 95t38.5 95t101.5 38t101 -38.5t38 -96.5q0 -56 -38.5 -93.5t-100.5 -37.5zM131 0v913h223v-913h-223z" />
    <glyph glyph-name="j" unicode="j" horiz-adv-x="493" 
d="M250 1104q-62 0 -99.5 38t-37.5 93q0 58 37.5 96.5t99.5 38.5q64 0 102.5 -38t38.5 -97q0 -57 -39 -94t-102 -37zM-66 -475l-28 190q72 5 118 23.5t71 54t34.5 81.5t9.5 116v923h223v-923q0 -116 -21 -197.5t-70.5 -140.5t-132 -90t-204.5 -37z" />
    <glyph glyph-name="k" unicode="k" horiz-adv-x="952" 
d="M547 471l393 -459v-12h-258l-328 389v-389h-223v1475h223v-924l303 362h252v-10z" />
    <glyph glyph-name="l" unicode="l" horiz-adv-x="487" 
d="M131 0v1475h223l2 -1475h-225z" />
    <glyph glyph-name="m" unicode="m" horiz-adv-x="1622" 
d="M1190 938q149 0 231 -93.5t82 -256.5v-588h-223v563q0 82 -39.5 128t-107.5 46q-99 0 -152 -73.5t-53 -174.5v-489h-221v565q0 74 -39 123t-111 49q-98 0 -150.5 -73.5t-52.5 -174.5v-489h-223v913h152l45 -145q95 170 290 170q97 0 168 -43t107 -119q46 76 121.5 119
t175.5 43z" />
    <glyph glyph-name="n" unicode="n" horiz-adv-x="1077" 
d="M635 938q156 0 238.5 -95.5t82.5 -271.5v-571h-223v551q0 186 -155 186q-102 0 -163 -66t-61 -169v-502h-223v913h152l45 -143q108 168 307 168z" />
    <glyph glyph-name="o" unicode="o" horiz-adv-x="1128" 
d="M563 -27q-215 0 -352 136t-137 348t137 346.5t352 134.5q216 0 354 -134.5t138 -346.5t-138.5 -348t-353.5 -136zM563 172q118 0 191 79.5t73 205.5t-73 205t-191 79q-117 0 -190.5 -79t-73.5 -205t73.5 -205.5t190.5 -79.5z" />
    <glyph glyph-name="p" unicode="p" horiz-adv-x="1171" 
d="M657 936q189 0 313 -135t124 -340q0 -213 -123 -348.5t-314 -135.5q-187 0 -307 127q4 -63 4 -217v-338h-223v1364h152l43 -139q123 162 331 162zM610 172q115 0 185.5 79t70.5 204q0 128 -70.5 206t-185.5 78q-119 0 -191.5 -77t-72.5 -203q0 -129 73.5 -208t190.5 -79z
" />
    <glyph glyph-name="q" unicode="q" horiz-adv-x="1171" 
d="M889 913h151v-1364h-225v338q0 123 6 222q-119 -132 -307 -132q-193 0 -314.5 135t-121.5 349q0 206 123.5 340.5t312.5 134.5q208 0 330 -164zM559 172q119 0 192.5 79t73.5 208q0 126 -73 203t-193 77q-114 0 -185 -78.5t-71 -205.5q0 -125 71 -204t185 -79z" />
    <glyph glyph-name="r" unicode="r" horiz-adv-x="759" 
d="M590 934q91 0 158 -39l-58 -188q-58 20 -119 20q-98 0 -157.5 -61t-59.5 -168v-498h-223v913h152l43 -135q81 156 264 156z" />
    <glyph glyph-name="s" unicode="s" horiz-adv-x="815" 
d="M416 -20q-199 0 -355 100l89 158q121 -76 249 -76q62 0 99 25.5t37 68.5q0 16 -6 30.5t-21 27.5t-26.5 21.5t-38.5 20.5t-39.5 17t-45.5 18q-123 47 -190.5 112t-67.5 169q0 121 93 188.5t231 67.5q158 0 299 -82l-78 -150q-105 54 -203 54q-57 0 -93 -19t-36 -59
q0 -41 41.5 -70t124.5 -59q134 -49 204.5 -115t70.5 -172q0 -126 -93 -201t-245 -75z" />
    <glyph glyph-name="t" unicode="t" horiz-adv-x="763" 
d="M471 -20q-127 0 -199.5 75t-72.5 224v444l-162 12v178h162l6 293h217v-293h283v-190h-283v-422q0 -64 26 -90.5t74 -26.5q81 0 154 47l72 -168q-132 -83 -277 -83z" />
    <glyph glyph-name="u" unicode="u" horiz-adv-x="1071" 
d="M717 913h223v-913h-156l-45 141q-47 -75 -121 -117t-169 -42q-162 0 -246 96.5t-84 269.5v565h225v-544q0 -187 160 -187q100 0 156.5 74t56.5 184v473z" />
    <glyph glyph-name="v" unicode="v" horiz-adv-x="993" 
d="M733 913h246v-6l-434 -915h-96l-433 915v6h246l178 -409q40 -95 58 -172q25 96 57 172z" />
    <glyph glyph-name="w" unicode="w" horiz-adv-x="1382" 
d="M1122 913h236v-6l-342 -915h-70l-254 510l-256 -510h-67l-342 915v6h237l142 -405q17 -52 32 -111q16 41 51 113l179 358h47l178 -358q29 -54 53 -115q9 38 35 113z" />
    <glyph glyph-name="x" unicode="x" horiz-adv-x="968" 
d="M35 0v4l307 471l-281 432v6h250l115 -188q27 -45 57 -109l62 111l117 186h243v-6l-278 -432l307 -471v-4h-252l-133 213q-18 29 -66 123q-35 -75 -65 -123l-135 -213h-248z" />
    <glyph glyph-name="y" unicode="y" horiz-adv-x="1001" 
d="M750 913h233v-6l-539 -1358h-237v5l203 469l-392 884v6h242l195 -467q38 -90 61 -178q14 52 55 178z" />
    <glyph glyph-name="z" unicode="z" horiz-adv-x="856" 
d="M526 193h265v-193h-723v63l340 560q13 23 61 100q-51 -2 -113 -2h-270v192h698v-63l-317 -524q-56 -93 -86 -136q86 3 145 3z" />
    <glyph glyph-name="braceleft" unicode="{" horiz-adv-x="671" 
d="M614 -389q-20 -2 -59 -2q-149 0 -221 70t-72 219v409q0 98 -37 142t-131 43v186q94 0 131 43.5t37 140.5v410q0 151 72 221t221 70q39 0 59 -2v-187q-86 5 -118.5 -23.5t-32.5 -107.5v-414q0 -101 -38 -159.5t-116 -83.5q78 -25 116 -84t38 -160v-414q0 -80 32.5 -108.5
t118.5 -22.5v-186z" />
    <glyph glyph-name="bar" unicode="|" horiz-adv-x="471" 
d="M135 -340v1853h203v-1853h-203z" />
    <glyph glyph-name="braceright" unicode="}" horiz-adv-x="671" 
d="M55 -389v186q87 -6 120.5 22.5t33.5 108.5v414q0 101 37.5 160t113.5 84q-76 25 -113.5 83.5t-37.5 159.5v414q0 79 -33 107.5t-121 23.5v187q20 2 60 2q151 0 223 -70t72 -221v-410q0 -98 36.5 -141t131.5 -43v-186q-95 1 -131.5 -43t-36.5 -142v-409
q0 -150 -72.5 -219.5t-222.5 -69.5q-40 0 -60 2z" />
    <glyph glyph-name="asciitilde" unicode="~" horiz-adv-x="1150" 
d="M272 553l-157 84q34 108 102.5 170.5t173.5 62.5q85 0 197 -65q44 -28 60 -37.5t47.5 -22t56.5 -12.5q84 0 122 125l162 -80q-31 -112 -98 -179t-170 -67q-50 0 -93 16.5t-97 47.5q-5 3 -24.5 14.5t-26 15.5t-23 13t-25.5 12t-23 8t-26 7t-24 2q-53 0 -82 -28.5
t-52 -86.5z" />
    <glyph glyph-name="uni00A0" unicode="&#xa0;" horiz-adv-x="460" 
 />
    <glyph glyph-name="exclamdown" unicode="&#xa1;" horiz-adv-x="561" 
d="M281 844q59 0 101 -37t42 -105q0 -69 -42 -106t-101 -37t-102.5 37t-43.5 106q0 68 43.5 105t102.5 37zM178 434h203l27 -1007h-256z" />
    <glyph glyph-name="cent" unicode="&#xa2;" horiz-adv-x="923" 
d="M870 276q-106 -104 -260 -122v-170h-153v172q-163 27 -266 149t-103 311q0 187 104 312.5t265 152.5v170h153v-168q147 -21 248 -122l-100 -152q-81 84 -193 84q-107 0 -178.5 -75.5t-71.5 -201.5q0 -122 71 -196t179 -74q66 0 114.5 21t94.5 67z" />
    <glyph glyph-name="sterling" unicode="&#xa3;" horiz-adv-x="1003" 
d="M399 209h555v-209h-839l-54 131q119 91 184.5 204.5t65.5 221.5v12h-200v158h157q-6 12 -34 65.5t-38 77.5t-22 70.5t-12 91.5q0 148 111.5 246t281.5 98q213 0 363 -147l-132 -137q-81 75 -196 75q-84 0 -135.5 -43.5t-51.5 -115.5q0 -44 15.5 -87.5t47.5 -104.5t44 -89
h297v-158h-260v-10q0 -182 -148 -350z" />
    <glyph glyph-name="currency" unicode="&#xa4;" horiz-adv-x="1087" 
d="M201 260l-113 115l129 129q-55 93 -55 213t55 213l-129 129l113 115l127 -125q90 65 217 65q125 0 215 -65l127 125l112 -115l-127 -129q56 -94 56 -213t-56 -213l127 -129l-112 -115l-127 125q-95 -68 -215 -68q-122 0 -217 68zM545 504q85 0 136.5 58t51.5 155
t-51.5 155t-136.5 58q-86 0 -138.5 -58t-52.5 -155t52.5 -155t138.5 -58z" />
    <glyph glyph-name="yen" unicode="&#xa5;" horiz-adv-x="1224" 
d="M489 0v313h-313v152h313v113h-313v151h252l-408 625h271l319 -535l322 535h270l-407 -625h252v-151h-314v-113h314v-152h-314v-313h-244z" />
    <glyph glyph-name="brokenbar" unicode="&#xa6;" horiz-adv-x="471" 
d="M135 723v790h203v-790h-203zM135 -340v827h203v-827h-203z" />
    <glyph glyph-name="section" unicode="&#xa7;" horiz-adv-x="1093" 
d="M530 -119q-222 0 -391 133l107 172q58 -53 134 -81.5t155 -28.5q176 0 176 127q0 25 -12.5 47t-30 37.5t-51 33t-60 28.5t-72.5 28q-64 24 -110 44t-98.5 51t-85 63t-54.5 77.5t-22 96.5q0 71 34 129t95 92q-78 75 -78 184q0 98 52.5 168t137 102.5t189.5 32.5
q195 0 350 -104l-94 -166q-53 38 -120.5 59t-131.5 21q-73 0 -118.5 -28t-45.5 -81q0 -27 14.5 -49.5t45.5 -41.5t59 -31.5t76 -30.5q84 -32 146 -62.5t123.5 -74t94.5 -99t33 -119.5q0 -134 -121 -217q76 -76 76 -184q0 -158 -112 -243t-290 -85zM702 496q60 43 60 98
q0 16 -4.5 31t-15 28.5t-20.5 24t-28 22t-30 19t-34.5 17.5t-33.5 14.5t-34 13.5t-30 12q-85 32 -141 60q-69 -50 -69 -105q0 -18 7.5 -35t25 -32.5t31 -26.5t42.5 -25t41 -19.5t44 -18.5t36 -15q75 -28 153 -63z" />
    <glyph glyph-name="dieresis" unicode="&#xa8;" horiz-adv-x="858" 
d="M254 1112q-53 0 -87 35t-34 84q0 48 33.5 84.5t87.5 36.5q52 0 86.5 -36t34.5 -83q0 -48 -34 -84.5t-87 -36.5zM606 1112q-54 0 -88.5 35.5t-34.5 83.5t35 84.5t88 36.5t87 -36.5t34 -84.5q0 -47 -34.5 -83t-86.5 -36z" />
    <glyph glyph-name="copyright" unicode="&#xa9;" horiz-adv-x="1589" 
d="M795 -6q-154 0 -285.5 54.5t-222 149t-142 223.5t-51.5 275t51.5 275t142 223t222 148.5t285.5 54.5q153 0 284 -54.5t221.5 -148.5t141.5 -223t51 -275t-51 -275t-141.5 -223.5t-221.5 -149t-284 -54.5zM795 119q168 0 298 76t199.5 207t69.5 294q0 162 -69.5 292.5
t-199.5 206t-298 75.5q-252 0 -411 -163.5t-159 -410.5q0 -163 71 -294.5t201.5 -207t297.5 -75.5zM817 317q-70 0 -135.5 24t-120 69.5t-87 120t-32.5 167.5q0 172 108.5 275.5t264.5 103.5q152 0 260 -102l-84 -121q-70 64 -166 64q-89 0 -146.5 -62t-57.5 -160t59 -157.5
t151 -59.5q100 0 179 76l86 -123q-115 -115 -279 -115z" />
    <glyph glyph-name="ordfeminine" unicode="&#xaa;" horiz-adv-x="628" 
d="M236 918q-70 0 -113 39.5t-43 107.5q0 58 39.5 99t96 58.5t124.5 18.5q19 0 47 -4v31q0 67 -90 67q-76 0 -150 -41l-47 107q111 57 222 57q93 0 149.5 -49t56.5 -149v-328h-104l-21 67q-20 -33 -62.5 -57t-104.5 -24zM285 1022q44 0 74 33.5t30 89.5q-14 4 -47 4
q-50 0 -86.5 -18t-36.5 -56q0 -53 66 -53zM94 702v125h434v-125h-434z" />
    <glyph glyph-name="guillemotleft" unicode="&#xab;" horiz-adv-x="931" 
d="M311 90l-258 412l254 403l168 -92l-176 -311l178 -320zM678 90l-258 412l256 403l166 -92l-176 -311l180 -320z" />
    <glyph glyph-name="logicalnot" unicode="&#xac;" horiz-adv-x="1091" 
d="M784 393v269h-669v192h856v-461h-187z" />
    <glyph glyph-name="registered" unicode="&#xae;" horiz-adv-x="1105" 
d="M553 485q-197 0 -328 132t-131 331q0 196 131 327.5t328 131.5t328 -131.5t131 -327.5q0 -199 -131 -331t-328 -132zM553 586q151 0 251.5 103.5t100.5 258.5q0 152 -100.5 254.5t-251.5 102.5t-251.5 -102.5t-100.5 -254.5q0 -155 100.5 -258.5t251.5 -103.5zM387 729
v445h207q64 0 106.5 -40t42.5 -100q0 -47 -28.5 -81.5t-73.5 -45.5l117 -178h-115l-106 170h-52v-170h-98zM485 977h93q30 0 48.5 16t18.5 41t-18.5 41.5t-48.5 16.5h-93v-115z" />
    <glyph glyph-name="macron" unicode="&#xaf;" horiz-adv-x="806" 
d="M131 1120v162h549v-162h-549z" />
    <glyph glyph-name="degree" unicode="&#xb0;" horiz-adv-x="722" 
d="M362 852q-127 0 -211.5 76t-84.5 207t84 205.5t212 74.5q127 0 211 -75t84 -205q0 -131 -84.5 -207t-210.5 -76zM362 997q56 0 93 38t37 100t-36.5 98.5t-93.5 36.5q-58 0 -94.5 -36.5t-36.5 -98.5t36.5 -100t94.5 -38z" />
    <glyph glyph-name="plusminus" unicode="&#xb1;" horiz-adv-x="999" 
d="M403 498v282h-282v183h282v280h191v-280h285v-183h-285v-282h-191zM121 186v181h758v-181h-758z" />
    <glyph glyph-name="acute" unicode="&#xb4;" horiz-adv-x="628" 
d="M201 1067l-92 104l290 250l125 -145z" />
    <glyph glyph-name="uni00B5" unicode="&#xb5;" horiz-adv-x="1083" 
d="M729 913h223v-913h-180l-18 141q-90 -153 -256 -153q-96 0 -160 55q12 -156 12 -330v-151h-219v1351h223v-497q0 -232 168 -232q68 0 116.5 39t69.5 96.5t21 126.5v467z" />
    <glyph glyph-name="paragraph" unicode="&#xb6;" horiz-adv-x="1282" 
d="M477 -201v781q-127 1 -221.5 55.5t-142 145.5t-47.5 204q0 177 110.5 292.5t300.5 115.5h637v-1594h-201v1399h-235v-1399h-201z" />
    <glyph glyph-name="periodcentered" unicode="&#xb7;" horiz-adv-x="548" 
d="M274 575q-59 0 -102 36.5t-43 105.5t42.5 105t102.5 36t103 -36t43 -105t-43.5 -105.5t-102.5 -36.5z" />
    <glyph glyph-name="cedilla" unicode="&#xb8;" horiz-adv-x="661" 
d="M319 -442q-124 0 -210 53l51 117q64 -41 137 -41q94 0 94 61q0 45 -52.5 63.5t-129.5 16.5l72 176h145l-45 -108q76 -11 124 -52.5t48 -111.5q0 -81 -65.5 -127.5t-168.5 -46.5z" />
    <glyph glyph-name="ordmasculine" unicode="&#xba;" horiz-adv-x="651" 
d="M326 920q-114 0 -177 78t-63 192q0 113 63 190.5t177 77.5q115 0 177 -77.5t62 -190.5q0 -115 -62 -192.5t-177 -77.5zM326 1051q50 0 75 41.5t25 97.5t-25 97.5t-75 41.5q-51 0 -75 -42.5t-24 -96.5q0 -57 24 -98t75 -41zM111 702v125h438v-125h-438z" />
    <glyph glyph-name="guillemotright" unicode="&#xbb;" horiz-adv-x="931" 
d="M254 90l-168 92l180 320l-176 311l166 92l256 -403zM621 90l-166 92l178 320l-176 311l168 92l254 -403z" />
    <glyph glyph-name="onequarter" unicode="&#xbc;" horiz-adv-x="1275" 
d="M207 813v367l-78 -68l-78 84l213 203h74v-586h-131zM168 0l723 1393h153l-720 -1393h-156zM993 0v94h-270v60l328 432h63v-387h70v-105h-70v-94h-121zM889 199h104v141z" />
    <glyph glyph-name="onehalf" unicode="&#xbd;" horiz-adv-x="1318" 
d="M207 813v367l-78 -68l-78 84l213 203h74v-586h-131zM891 1393h153l-720 -1393h-156zM1047 119h196v-119h-416v55l217 264q43 58 43 97q0 63 -65 63q-51 0 -88 -76l-103 52q24 73 76.5 110t122.5 37q87 0 140 -52t53 -126q0 -80 -70 -172z" />
    <glyph glyph-name="threequarters" unicode="&#xbe;" horiz-adv-x="1400" 
d="M289 791q-126 0 -205 73l70 92q46 -43 120 -43q43 0 68 20.5t25 55.5q0 72 -95 72h-65v104h53q36 0 58 17t22 49q0 28 -20.5 43.5t-49.5 15.5q-49 0 -94 -33l-74 89q76 67 189 67q76 0 129 -45.5t53 -114.5q0 -44 -21.5 -80t-58.5 -51q45 -13 78 -53.5t33 -93.5
q0 -83 -59 -133.5t-156 -50.5zM293 0l723 1393h153l-720 -1393h-156zM1118 0v94h-270v60l328 432h63v-387h70v-105h-70v-94h-121zM1014 199h104v141z" />
    <glyph glyph-name="questiondown" unicode="&#xbf;" horiz-adv-x="907" 
d="M535 844q59 0 101 -37t42 -105q0 -69 -42 -106t-101 -37q-60 0 -103 37t-43 106q0 68 43 105t103 37zM643 434q4 -54 4 -76q0 -59 -11 -110.5t-25 -86t-41.5 -72.5t-46 -58t-52.5 -54q-52 -52 -74.5 -76.5t-44.5 -66.5t-22 -82q0 -58 47 -100.5t131 -42.5q138 0 240 117
l133 -150q-85 -89 -180.5 -131.5t-219.5 -42.5q-177 0 -285 96.5t-108 229.5q0 37 6.5 70.5t24.5 67t30.5 55t46 57.5t47 50t56.5 56q67 67 100 129.5t33 161.5q0 39 -2 59h213z" />
    <glyph glyph-name="Agrave" unicode="&#xc0;" horiz-adv-x="1406" 
d="M793 1528l-342 215l135 155l303 -260zM741 1401l656 -1395v-6h-252l-115 252h-651l-115 -252h-254v4l658 1397h73zM705 1012q-45 -124 -95 -238l-151 -332h491l-151 332q-38 85 -94 238z" />
    <glyph glyph-name="Aacute" unicode="&#xc1;" horiz-adv-x="1406" 
d="M934 1745l-340 -217l-96 110l303 260zM741 1401l656 -1395v-6h-252l-115 252h-653l-113 -252h-254v4l658 1397h73zM705 1012q-45 -124 -95 -238l-151 -332h491l-151 332q-53 118 -94 238z" />
    <glyph glyph-name="Acircumflex" unicode="&#xc2;" horiz-adv-x="1406" 
d="M481 1511l-86 107l289 225h37l287 -227l-84 -105l-222 142zM741 1401l656 -1395v-6h-252l-115 252h-651l-115 -252h-254v4l658 1397h73zM705 1012q-45 -124 -95 -238l-151 -332h491l-151 332q-38 85 -94 238z" />
    <glyph glyph-name="Atilde" unicode="&#xc3;" horiz-adv-x="1406" 
d="M516 1556l-131 76q35 92 82.5 138.5t114.5 46.5q58 0 139 -41q64 -29 90 -29q45 0 78 70l133 -72q-70 -182 -197 -182q-57 0 -120 32q-5 2 -18.5 8.5t-19.5 9t-17 7.5t-18 7t-16 3.5t-16 1.5q-25 0 -44.5 -17t-39.5 -59zM741 1401l656 -1395v-6h-252l-115 252h-651
l-115 -252h-254v4l658 1397h73zM705 1012q-45 -124 -95 -238l-151 -332h491l-151 332q-38 85 -94 238z" />
    <glyph glyph-name="Adieresis" unicode="&#xc4;" horiz-adv-x="1406" 
d="M502 1565q-57 0 -93 37t-36 90t35.5 92t93.5 39q56 0 92.5 -38.5t36.5 -90.5t-35.5 -90.5t-93.5 -38.5zM905 1565q-57 0 -93 38t-36 91q0 52 36.5 90.5t92.5 38.5t92.5 -38.5t36.5 -90.5q0 -53 -36 -91t-93 -38zM741 1401l656 -1395v-6h-252l-115 252h-651l-115 -252
h-254v4l658 1397h73zM705 1012q-45 -124 -95 -238l-151 -332h491l-151 332q-38 85 -94 238z" />
    <glyph glyph-name="Aring" unicode="&#xc5;" horiz-adv-x="1406" 
d="M705 1479q-102 0 -172 60t-70 161q0 102 68 162.5t169 60.5q102 0 172 -60.5t70 -162.5q0 -101 -67.5 -161t-169.5 -60zM702 1604q43 0 71 26t28 72q0 45 -28.5 71.5t-70.5 26.5t-70 -26t-28 -72t28 -72t70 -26zM741 1401l656 -1395v-6h-252l-115 252h-651l-115 -252
h-254v4l658 1397h73zM705 1012q-45 -124 -95 -238l-151 -332h491l-151 332q-38 85 -94 238z" />
    <glyph glyph-name="AE" unicode="&#xc6;" horiz-adv-x="1814" 
d="M1130 213h599v-213h-828v256h-479l-166 -256h-270v6l915 1387h809v-213h-580v-367h510v-205h-510v-395zM535 442h366v379v211q-23 -49 -86 -155z" />
    <glyph glyph-name="Ccedilla" unicode="&#xc7;" horiz-adv-x="1417" 
d="M1372 233q-179 -219 -463 -253l-35 -84q78 -12 130.5 -55.5t52.5 -116.5q0 -90 -70.5 -140.5t-183.5 -50.5q-138 0 -230 57l58 129q64 -45 147 -45q96 0 99 60q3 35 -27.5 57t-72.5 29t-93 6l61 149q-193 15 -342 115.5t-229 259t-80 348.5q0 155 54 289t149 229
t229.5 149t290.5 54q157 0 281.5 -49t242.5 -156l-124 -163q-162 149 -394 149q-213 0 -347 -140.5t-134 -361.5q0 -217 132 -361t341 -144q257 0 406 196z" />
    <glyph glyph-name="Egrave" unicode="&#xc8;" horiz-adv-x="1148" 
d="M700 1528l-342 215l136 155l303 -260zM412 213h653v-213h-895v1393h877v-213h-635v-369h555v-207h-555v-391z" />
    <glyph glyph-name="Eacute" unicode="&#xc9;" horiz-adv-x="1148" 
d="M844 1745l-340 -217l-96 110l303 260zM412 213h653v-213h-895v1393h877v-213h-635v-369h555v-207h-555v-391z" />
    <glyph glyph-name="Ecircumflex" unicode="&#xca;" horiz-adv-x="1148" 
d="M391 1511l-86 107l289 225h37l287 -227l-84 -105l-222 142zM412 213h653v-213h-895v1393h877v-213h-635v-369h555v-207h-555v-391z" />
    <glyph glyph-name="Edieresis" unicode="&#xcb;" horiz-adv-x="1148" 
d="M412 1565q-57 0 -93 37t-36 90t35.5 92t93.5 39q56 0 92.5 -38.5t36.5 -90.5t-35.5 -90.5t-93.5 -38.5zM815 1565q-57 0 -93 38t-36 91q0 52 36.5 90.5t92.5 38.5t92.5 -38.5t36.5 -90.5q0 -53 -36 -91t-93 -38zM412 213h653v-213h-895v1393h877v-213h-635v-369h555v-207
h-555v-391z" />
    <glyph glyph-name="Igrave" unicode="&#xcc;" horiz-adv-x="581" 
d="M379 1528l-342 215l135 155l303 -260zM170 0v1393h242v-1393h-242z" />
    <glyph glyph-name="Iacute" unicode="&#xcd;" horiz-adv-x="581" 
d="M180 1528l-96 110l303 260l133 -153zM170 0v1393h242v-1393h-242z" />
    <glyph glyph-name="Icircumflex" unicode="&#xce;" horiz-adv-x="581" 
d="M68 1511l-86 107l288 225h37l287 -227l-84 -105l-221 142zM170 0v1393h242v-1393h-242z" />
    <glyph glyph-name="Idieresis" unicode="&#xcf;" horiz-adv-x="581" 
d="M88 1565q-57 0 -93 37t-36 90t35.5 92t93.5 39q56 0 92.5 -38.5t36.5 -90.5t-35.5 -90.5t-93.5 -38.5zM492 1565q-57 0 -93.5 38t-36.5 91q0 52 36.5 90.5t93.5 38.5q56 0 92.5 -38.5t36.5 -90.5q0 -53 -36 -91t-93 -38zM170 0v1393h242v-1393h-242z" />
    <glyph glyph-name="Eth" unicode="&#xd0;" horiz-adv-x="1488" 
d="M684 1393q156 0 289 -52.5t225.5 -144.5t144.5 -221.5t52 -280.5q0 -150 -51 -278.5t-142.5 -220t-224.5 -143.5t-291 -52h-500v625h-143v172h143v596h498zM676 209q218 0 346.5 134.5t128.5 350.5q0 215 -130 352.5t-347 137.5h-246v-387h336v-172h-336v-416h248z" />
    <glyph glyph-name="Ntilde" unicode="&#xd1;" horiz-adv-x="1533" 
d="M651 1632q-25 0 -44.5 -17t-39.5 -59l-131 76q35 92 82.5 138.5t114.5 46.5q58 0 139 -41q64 -29 90 -29q45 0 78 70l133 -72q-70 -182 -196 -182q-58 0 -121 32q-5 2 -18.5 8.5t-19.5 9t-17 7.5t-18 7t-16 3.5t-16 1.5zM1124 1393h240v-1401h-94l-752 821
q-83 87 -117 127q9 -115 9 -152v-788h-240v1401h92l729 -801q93 -97 139 -149q-6 102 -6 186v756z" />
    <glyph glyph-name="Ograve" unicode="&#xd2;" horiz-adv-x="1638" 
d="M907 1528l-342 215l135 155l304 -260zM819 -27q-209 0 -375.5 96t-258 261.5t-91.5 367.5q0 155 54 289t148.5 229t230 149t292.5 54q212 0 377.5 -92.5t256.5 -257t91 -371.5q0 -152 -53.5 -285.5t-147.5 -230.5t-230 -153t-294 -56zM819 193q143 0 253 68t168 182
t58 255q0 220 -131 361t-348 141q-215 0 -346 -141t-131 -361q0 -105 34 -197.5t95 -160.5t151 -107.5t197 -39.5z" />
    <glyph glyph-name="Oacute" unicode="&#xd3;" horiz-adv-x="1638" 
d="M711 1528l-97 110l304 260l133 -153zM819 -27q-209 0 -375.5 96t-258 261.5t-91.5 367.5q0 155 54 289t148.5 229t230 149t292.5 54q212 0 377.5 -92.5t256.5 -257t91 -371.5q0 -152 -53.5 -285.5t-147.5 -230.5t-230 -153t-294 -56zM819 193q143 0 253 68t168 182
t58 255q0 220 -131 361t-348 141q-215 0 -346 -141t-131 -361q0 -105 34 -197.5t95 -160.5t151 -107.5t197 -39.5z" />
    <glyph glyph-name="Ocircumflex" unicode="&#xd4;" horiz-adv-x="1638" 
d="M598 1511l-86 107l289 225h37l286 -227l-84 -105l-221 142zM819 -27q-209 0 -375.5 96t-258 261.5t-91.5 367.5q0 155 54 289t148.5 229t230 149t292.5 54q212 0 377.5 -92.5t256.5 -257t91 -371.5q0 -152 -53.5 -285.5t-147.5 -230.5t-230 -153t-294 -56zM819 193
q143 0 253 68t168 182t58 255q0 220 -131 361t-348 141q-215 0 -346 -141t-131 -361q0 -105 34 -197.5t95 -160.5t151 -107.5t197 -39.5z" />
    <glyph glyph-name="Otilde" unicode="&#xd5;" horiz-adv-x="1638" 
d="M631 1556l-131 76q35 92 82 138.5t114 46.5q59 0 140 -41q64 -29 90 -29q45 0 78 70l133 -72q-70 -182 -197 -182q-58 0 -121 32q-5 2 -22 10t-23.5 11t-19 8t-21.5 6.5t-18 1.5q-25 0 -44.5 -17t-39.5 -59zM819 -27q-209 0 -375.5 96t-258 261.5t-91.5 367.5
q0 155 54 289t148.5 229t230 149t292.5 54q212 0 377.5 -92.5t256.5 -257t91 -371.5q0 -152 -53.5 -285.5t-147.5 -230.5t-230 -153t-294 -56zM819 193q143 0 253 68t168 182t58 255q0 220 -131 361t-348 141q-215 0 -346 -141t-131 -361q0 -105 34 -197.5t95 -160.5
t151 -107.5t197 -39.5z" />
    <glyph glyph-name="Odieresis" unicode="&#xd6;" horiz-adv-x="1638" 
d="M618 1565q-57 0 -93 37t-36 90t35.5 92t93.5 39q57 0 93.5 -38.5t36.5 -90.5t-36 -90.5t-94 -38.5zM1022 1565q-57 0 -93 38t-36 91q0 52 36.5 90.5t92.5 38.5t92.5 -38.5t36.5 -90.5q0 -53 -36 -91t-93 -38zM819 -27q-209 0 -375.5 96t-258 261.5t-91.5 367.5
q0 155 54 289t148.5 229t230 149t292.5 54q212 0 377.5 -92.5t256.5 -257t91 -371.5q0 -152 -53.5 -285.5t-147.5 -230.5t-230 -153t-294 -56zM819 193q143 0 253 68t168 182t58 255q0 220 -131 361t-348 141q-215 0 -346 -141t-131 -361q0 -105 34 -197.5t95 -160.5
t151 -107.5t197 -39.5z" />
    <glyph glyph-name="multiply" unicode="&#xd7;" horiz-adv-x="997" 
d="M268 338l-129 127l232 231l-232 232l129 127l232 -232l231 232l127 -127l-233 -232l233 -231l-127 -127l-231 231z" />
    <glyph glyph-name="Oslash" unicode="&#xd8;" horiz-adv-x="1638" 
d="M1300 1255q117 -98 180.5 -241.5t63.5 -315.5q0 -152 -53.5 -285.5t-147.5 -230.5t-230 -153t-294 -56q-190 0 -352 84l-113 -161l-125 88l113 157q-118 101 -183 245.5t-65 311.5q0 155 54 289t148.5 229t230 149t292.5 54q199 0 357 -82l137 201l125 -86zM819 1204
q-216 0 -346.5 -141.5t-130.5 -364.5q0 -225 137 -368l574 821q-103 53 -234 53zM819 190q215 0 347 145.5t132 362.5q0 231 -137 371l-571 -823q106 -56 229 -56z" />
    <glyph glyph-name="Ugrave" unicode="&#xd9;" horiz-adv-x="1415" 
d="M797 1528l-342 215l135 155l303 -260zM709 -27q-249 0 -404 138t-155 383v899h241v-883q0 -156 85.5 -236.5t232.5 -80.5q145 0 230 80.5t85 236.5v883h242v-899q0 -163 -72.5 -282.5t-197.5 -179t-287 -59.5z" />
    <glyph glyph-name="Uacute" unicode="&#xda;" horiz-adv-x="1415" 
d="M600 1528l-96 110l303 260l133 -153zM709 -27q-249 0 -404 138t-155 383v899h241v-883q0 -156 85.5 -236.5t232.5 -80.5q145 0 230 80.5t85 236.5v883h242v-899q0 -163 -72.5 -282.5t-197.5 -179t-287 -59.5z" />
    <glyph glyph-name="Ucircumflex" unicode="&#xdb;" horiz-adv-x="1415" 
d="M487 1511l-86 107l289 225h37l287 -227l-84 -105l-221 142zM709 -27q-249 0 -404 138t-155 383v899h241v-883q0 -156 85.5 -236.5t232.5 -80.5q145 0 230 80.5t85 236.5v883h242v-899q0 -163 -72.5 -282.5t-197.5 -179t-287 -59.5z" />
    <glyph glyph-name="Udieresis" unicode="&#xdc;" horiz-adv-x="1415" 
d="M508 1565q-57 0 -93 37t-36 90t35.5 92t93.5 39q56 0 92.5 -38.5t36.5 -90.5t-35.5 -90.5t-93.5 -38.5zM911 1565q-57 0 -93 38t-36 91q0 52 36.5 90.5t92.5 38.5t92.5 -38.5t36.5 -90.5q0 -53 -36 -91t-93 -38zM709 -27q-249 0 -404 138t-155 383v899h241v-883
q0 -156 85.5 -236.5t232.5 -80.5q145 0 230 80.5t85 236.5v883h242v-899q0 -163 -72.5 -282.5t-197.5 -179t-287 -59.5z" />
    <glyph glyph-name="Yacute" unicode="&#xdd;" horiz-adv-x="1318" 
d="M891 1745l-340 -217l-96 110l303 260zM1014 1393h274v-7l-508 -782v-604h-241v604l-508 782v7h274l250 -394q56 -91 107 -192q37 84 104 192z" />
    <glyph glyph-name="Thorn" unicode="&#xde;" horiz-adv-x="1212" 
d="M170 0v1393h244v-234h282q110 0 201 -40.5t146.5 -106t85.5 -144t30 -159.5q0 -65 -18 -127.5t-56 -119.5t-92 -100.5t-132 -69.5t-171 -26h-276v-266h-244zM414 475h250q122 0 186.5 68t64.5 168q0 103 -67 171t-180 68h-254v-475z" />
    <glyph glyph-name="germandbls" unicode="&#xdf;" horiz-adv-x="1083" 
d="M676 -14q-116 0 -215 37l43 190q53 -29 121 -29q81 0 134.5 36t53.5 97q0 31 -14 59.5t-36 51t-48.5 45t-53 48t-48.5 54t-36 67.5t-14 85q0 56 16 99.5t39 72.5l46 58t39 70.5t16 94.5q0 80 -44 125t-126 45q-97 0 -146 -70t-49 -196v-1026h-223v1026q0 230 108 350.5
t314 120.5q175 0 281 -98.5t106 -249.5q0 -68 -17 -121t-41.5 -86t-49 -62t-41.5 -64t-17 -77q0 -38 19.5 -73t49 -60t63.5 -57t63.5 -64.5t49 -83.5t19.5 -112q0 -95 -51 -165t-131.5 -104t-179.5 -34z" />
    <glyph glyph-name="agrave" unicode="&#xe0;" horiz-adv-x="991" 
d="M684 1171l-92 -104l-328 207l127 147zM496 930q177 0 276.5 -88t99.5 -252v-590h-149l-41 137q-110 -155 -326 -155q-128 0 -207 68.5t-79 187.5q0 154 124.5 238.5t337.5 84.5q49 0 115 -4v41q0 70 -48.5 105.5t-137.5 35.5q-133 0 -285 -73l-63 170q208 94 383 94z
M422 150q100 0 164 70t67 192q-56 6 -106 6q-122 0 -189 -41.5t-67 -116.5q0 -53 34.5 -81.5t96.5 -28.5z" />
    <glyph glyph-name="aacute" unicode="&#xe1;" horiz-adv-x="991" 
d="M709 1276l-324 -209l-92 104l291 250zM496 930q177 0 276.5 -88t99.5 -252v-590h-149l-41 137q-110 -155 -326 -155q-128 0 -207 68.5t-79 187.5q0 154 124.5 238.5t337.5 84.5q49 0 115 -4v41q0 70 -48.5 105.5t-137.5 35.5q-133 0 -285 -73l-63 170q208 94 383 94z
M422 150q100 0 164 70t67 192q-56 6 -106 6q-122 0 -189 -41.5t-67 -116.5q0 -53 34.5 -81.5t96.5 -28.5z" />
    <glyph glyph-name="acircumflex" unicode="&#xe2;" horiz-adv-x="991" 
d="M487 1188l-194 -137l-82 102l260 217h35l256 -219l-80 -100zM496 930q177 0 276.5 -88t99.5 -252v-590h-149l-41 137q-110 -155 -326 -155q-128 0 -207 68.5t-79 187.5q0 154 124.5 238.5t337.5 84.5q49 0 115 -4v41q0 70 -48.5 105.5t-137.5 35.5q-133 0 -285 -73
l-63 170q208 94 383 94zM422 150q100 0 164 70t67 192q-56 6 -106 6q-122 0 -189 -41.5t-67 -116.5q0 -53 34.5 -81.5t96.5 -28.5z" />
    <glyph glyph-name="atilde" unicode="&#xe3;" horiz-adv-x="991" 
d="M395 1171q-46 0 -73 -65l-125 70q67 165 180 165q63 0 121 -32q68 -33 90 -33q39 0 67 63l125 -67q-65 -164 -178 -164q-54 0 -113 29q-66 34 -94 34zM496 930q177 0 276.5 -88t99.5 -252v-590h-149l-41 137q-110 -155 -326 -155q-128 0 -207 68.5t-79 187.5
q0 154 124.5 238.5t337.5 84.5q49 0 115 -4v41q0 70 -48.5 105.5t-137.5 35.5q-133 0 -285 -73l-63 170q208 94 383 94zM422 150q100 0 164 70t67 192q-56 6 -106 6q-122 0 -189 -41.5t-67 -116.5q0 -53 34.5 -81.5t96.5 -28.5z" />
    <glyph glyph-name="adieresis" unicode="&#xe4;" horiz-adv-x="991" 
d="M311 1112q-53 0 -87 35t-34 84q0 48 33.5 84.5t87.5 36.5q52 0 86.5 -36t34.5 -83q0 -48 -34 -84.5t-87 -36.5zM664 1112q-54 0 -88.5 35.5t-34.5 83.5t35 84.5t88 36.5t86.5 -36.5t33.5 -84.5t-34 -83.5t-86 -35.5zM496 930q177 0 276.5 -88t99.5 -252v-590h-149
l-41 137q-110 -155 -326 -155q-128 0 -207 68.5t-79 187.5q0 154 124.5 238.5t337.5 84.5q49 0 115 -4v41q0 70 -48.5 105.5t-137.5 35.5q-133 0 -285 -73l-63 170q208 94 383 94zM422 150q100 0 164 70t67 192q-56 6 -106 6q-122 0 -189 -41.5t-67 -116.5q0 -53 34.5 -81.5
t96.5 -28.5z" />
    <glyph glyph-name="aring" unicode="&#xe5;" horiz-adv-x="991" 
d="M489 1026q-96 0 -162.5 56.5t-66.5 152.5q0 98 65 155.5t162 57.5q96 0 162 -57.5t66 -155.5q0 -96 -65 -152.5t-161 -56.5zM487 1331q-39 0 -65.5 -25.5t-26.5 -68.5q0 -44 26.5 -69t65.5 -25q40 0 66.5 25t26.5 69q0 43 -26.5 68.5t-66.5 25.5zM496 930
q177 0 276.5 -88t99.5 -252v-590h-149l-41 137q-110 -155 -326 -155q-128 0 -207 68.5t-79 187.5q0 154 124.5 238.5t337.5 84.5q49 0 115 -4v41q0 70 -48.5 105.5t-137.5 35.5q-133 0 -285 -73l-63 170q208 94 383 94zM422 150q100 0 164 70t67 192q-56 6 -106 6
q-122 0 -189 -41.5t-67 -116.5q0 -53 34.5 -81.5t96.5 -28.5z" />
    <glyph glyph-name="ae" unicode="&#xe6;" horiz-adv-x="1527" 
d="M1073 930q183 0 284 -122t101 -321q0 -47 -6 -96h-616q15 -114 86 -174.5t182 -60.5q127 0 227 84l92 -140q-148 -125 -340 -125q-242 0 -352 197q-62 -100 -150.5 -146t-213.5 -46q-131 0 -214 70t-83 194q0 81 38 142.5t104.5 97t146.5 52.5t173 17q62 0 97 -4v49
q0 141 -172 141q-67 0 -143.5 -21t-137.5 -52l-63 170q193 94 364 94q208 0 279 -144q103 144 317 144zM838 543h409q-2 97 -50 152t-136 55q-95 0 -151.5 -53.5t-71.5 -153.5zM416 152q92 0 154 65t63 186q-41 7 -96 7q-69 0 -121 -13t-88.5 -47.5t-36.5 -89.5
q0 -51 33 -79.5t92 -28.5z" />
    <glyph glyph-name="ccedilla" unicode="&#xe7;" horiz-adv-x="944" 
d="M565 -104q76 -11 124 -52.5t48 -111.5q0 -81 -65 -127.5t-168 -46.5q-125 0 -211 53l51 117q64 -41 137 -41q94 0 94 61q0 45 -52.5 63.5t-129.5 16.5l64 154q-77 14 -145 51t-121.5 95t-85 143t-31.5 186q0 145 66 256t174.5 168t240.5 57q199 0 340 -123l-109 -149
q-50 41 -99.5 59t-115.5 18q-118 0 -195 -79t-77 -207q0 -131 77 -209t191 -78q133 0 234 94l112 -149q-70 -65 -144 -99t-171 -41z" />
    <glyph glyph-name="egrave" unicode="&#xe8;" horiz-adv-x="1028" 
d="M633 1067l-328 207l127 147l293 -250zM545 938q193 0 304.5 -121.5t111.5 -327.5q0 -23 -9 -106h-655q21 -108 99.5 -166.5t191.5 -58.5q142 0 241 86l95 -144q-157 -127 -357 -127q-219 0 -356 135t-137 351q0 203 133 341t338 138zM541 756q-92 0 -158 -58.5
t-84 -162.5h451q-4 106 -61.5 163.5t-147.5 57.5z" />
    <glyph glyph-name="eacute" unicode="&#xe9;" horiz-adv-x="1028" 
d="M750 1276l-324 -209l-92 104l291 250zM545 938q193 0 304.5 -121.5t111.5 -327.5q0 -23 -9 -106h-655q21 -108 99.5 -166.5t191.5 -58.5q142 0 241 86l95 -144q-157 -127 -357 -127q-219 0 -356 135t-137 351q0 203 133 341t338 138zM541 756q-92 0 -158 -58.5
t-86 -162.5h453q-4 106 -61.5 163.5t-147.5 57.5z" />
    <glyph glyph-name="ecircumflex" unicode="&#xea;" horiz-adv-x="1028" 
d="M528 1188l-194 -137l-82 102l260 217h35l256 -219l-80 -100zM545 938q193 0 304.5 -121.5t111.5 -327.5q0 -23 -9 -106h-655q21 -108 99.5 -166.5t191.5 -58.5q142 0 241 86l95 -144q-157 -127 -357 -127q-219 0 -356 135t-137 351q0 203 133 341t338 138zM541 756
q-92 0 -158 -58.5t-86 -162.5h453q-4 106 -61.5 163.5t-147.5 57.5z" />
    <glyph glyph-name="edieresis" unicode="&#xeb;" horiz-adv-x="1028" 
d="M352 1112q-53 0 -87 35t-34 84q0 48 33.5 84.5t87.5 36.5q52 0 86.5 -36t34.5 -83q0 -48 -34 -84.5t-87 -36.5zM705 1112q-54 0 -88.5 35.5t-34.5 83.5t35 84.5t88 36.5t86.5 -36.5t33.5 -84.5t-34 -83.5t-86 -35.5zM545 938q193 0 304.5 -121.5t111.5 -327.5
q0 -23 -9 -106h-655q21 -108 99.5 -166.5t191.5 -58.5q142 0 241 86l95 -144q-157 -127 -357 -127q-219 0 -356 135t-137 351q0 203 133 341t338 138zM541 756q-92 0 -158 -58.5t-84 -162.5h451q-4 106 -61.5 163.5t-147.5 57.5z" />
    <glyph glyph-name="igrave" unicode="&#xec;" horiz-adv-x="485" 
d="M346 1067l-328 207l127 147l293 -250zM131 0v913h223v-913h-223z" />
    <glyph glyph-name="iacute" unicode="&#xed;" horiz-adv-x="485" 
d="M139 1083l-92 105l291 250l127 -146zM131 0v913h223v-913h-223z" />
    <glyph glyph-name="icircumflex" unicode="&#xee;" horiz-adv-x="485" 
d="M49 1069l-82 100l258 220h35l256 -222l-78 -98l-194 137zM131 0v913h223v-913h-223z" />
    <glyph glyph-name="idieresis" unicode="&#xef;" horiz-adv-x="485" 
d="M78 1106q-53 0 -87 35t-34 88t34 89t87 36t86 -35.5t33 -89.5q0 -53 -33 -88t-86 -35zM406 1106q-53 0 -87 35t-34 88t34 89t87 36t86.5 -36t33.5 -89t-33.5 -88t-86.5 -35zM131 0v913h223v-913h-223z" />
    <glyph glyph-name="eth" unicode="&#xf0;" horiz-adv-x="1058" 
d="M727 1206q252 -277 252 -694q0 -242 -119 -390.5t-334 -148.5q-92 0 -172.5 29t-142 83.5t-97.5 141t-36 193.5q0 196 116.5 318t286.5 122q159 0 267 -102q-47 190 -183 332l-188 -134l-96 127l159 115q-105 70 -225 117l86 172q170 -64 307 -170l137 98l97 -127z
M524 168q81 0 135 41.5t75.5 101t21.5 131.5q0 104 -67 169t-167 65q-98 0 -161.5 -71t-63.5 -181q0 -113 61 -184.5t166 -71.5z" />
    <glyph glyph-name="ntilde" unicode="&#xf1;" horiz-adv-x="1077" 
d="M442 1171q-46 0 -73 -65l-125 70q67 165 180 165q63 0 121 -32q68 -33 90 -33q39 0 67 63l125 -67q-65 -164 -178 -164q-53 0 -112 29q-66 34 -95 34zM635 938q156 0 238.5 -95.5t82.5 -271.5v-571h-223v551q0 186 -155 186q-102 0 -163 -66t-61 -169v-502h-223v913h152
l45 -143q108 168 307 168z" />
    <glyph glyph-name="ograve" unicode="&#xf2;" horiz-adv-x="1128" 
d="M668 1067l-328 207l127 147l293 -250zM563 -27q-215 0 -352 136t-137 348t137 346.5t352 134.5q216 0 354 -134.5t138 -346.5t-138.5 -348t-353.5 -136zM563 172q118 0 191 79.5t73 205.5t-73 205t-191 79q-117 0 -190.5 -79t-73.5 -205t73.5 -205.5t190.5 -79.5z" />
    <glyph glyph-name="oacute" unicode="&#xf3;" horiz-adv-x="1128" 
d="M459 1067l-92 104l290 250l125 -145zM563 -27q-215 0 -352 136t-137 348t137 346.5t352 134.5q216 0 354 -134.5t138 -346.5t-138.5 -348t-353.5 -136zM563 172q118 0 191 79.5t73 205.5t-73 205t-191 79q-117 0 -190.5 -79t-73.5 -205t73.5 -205.5t190.5 -79.5z" />
    <glyph glyph-name="ocircumflex" unicode="&#xf4;" horiz-adv-x="1128" 
d="M367 1051l-82 102l260 217h35l256 -219l-80 -100l-195 137zM563 -27q-215 0 -352 136t-137 348t137 346.5t352 134.5q216 0 354 -134.5t138 -346.5t-138.5 -348t-353.5 -136zM563 172q118 0 191 79.5t73 205.5t-73 205t-191 79q-117 0 -190.5 -79t-73.5 -205t73.5 -205.5
t190.5 -79.5z" />
    <glyph glyph-name="otilde" unicode="&#xf5;" horiz-adv-x="1128" 
d="M395 1106l-125 70q67 165 181 165q62 0 120 -32q68 -33 91 -33q39 0 67 63l125 -67q-65 -164 -178 -164q-54 0 -113 29q-66 34 -94 34q-47 0 -74 -65zM563 -27q-215 0 -352 136t-137 348t137 346.5t352 134.5q216 0 354 -134.5t138 -346.5t-138.5 -348t-353.5 -136z
M563 172q118 0 191 79.5t73 205.5t-73 205t-191 79q-117 0 -190.5 -79t-73.5 -205t73.5 -205.5t190.5 -79.5z" />
    <glyph glyph-name="odieresis" unicode="&#xf6;" horiz-adv-x="1128" 
d="M387 1112q-53 0 -87 35t-34 84q0 48 33.5 84.5t87.5 36.5q52 0 86.5 -36t34.5 -83q0 -48 -34 -84.5t-87 -36.5zM739 1112q-54 0 -88.5 35.5t-34.5 83.5t35 84.5t88 36.5t87 -36.5t34 -84.5q0 -47 -34.5 -83t-86.5 -36zM563 -27q-215 0 -352 136t-137 348t137 346.5
t352 134.5q216 0 354 -134.5t138 -346.5t-138.5 -348t-353.5 -136zM563 172q118 0 191 79.5t73 205.5t-73 205t-191 79q-117 0 -190.5 -79t-73.5 -205t73.5 -205.5t190.5 -79.5z" />
    <glyph glyph-name="divide" unicode="&#xf7;" horiz-adv-x="1095" 
d="M549 911q-65 0 -105.5 39t-40.5 103t40.5 102.5t105.5 38.5t104 -38.5t39 -102.5t-39 -103t-104 -39zM121 602v184h854v-184h-854zM549 193q-65 0 -105.5 38.5t-40.5 102.5q0 65 40.5 104t105.5 39t104 -38.5t39 -104.5q0 -64 -39 -102.5t-104 -38.5z" />
    <glyph glyph-name="oslash" unicode="&#xf8;" horiz-adv-x="1128" 
d="M881 834q83 -64 128.5 -161t45.5 -216q0 -212 -138.5 -348t-353.5 -136q-130 0 -235 54l-76 -109l-82 55l74 107q-81 65 -125.5 162.5t-44.5 214.5q0 212 137 346.5t352 134.5q129 0 234 -51l77 112l82 -55zM563 743q-120 0 -193 -79t-73 -207q0 -123 72 -205l313 467
q-53 24 -119 24zM563 170q120 0 193 79.5t73 207.5q0 123 -69 205l-318 -465q59 -27 121 -27z" />
    <glyph glyph-name="ugrave" unicode="&#xf9;" horiz-adv-x="1071" 
d="M635 1067l-328 207l127 147l293 -250zM717 913h223v-913h-156l-45 141q-47 -75 -121 -117t-169 -42q-162 0 -246 96.5t-84 269.5v565h225v-544q0 -187 160 -187q100 0 156.5 74t56.5 184v473z" />
    <glyph glyph-name="uacute" unicode="&#xfa;" horiz-adv-x="1071" 
d="M752 1276l-324 -209l-92 104l291 250zM717 913h223v-913h-156l-45 139q-47 -74 -121.5 -115.5t-168.5 -41.5q-162 0 -246 96.5t-84 269.5v565h225v-544q0 -187 160 -187q100 0 156.5 74t56.5 184v473z" />
    <glyph glyph-name="ucircumflex" unicode="&#xfb;" horiz-adv-x="1071" 
d="M530 1188l-194 -137l-82 102l260 217h35l256 -219l-80 -100zM717 913h223v-913h-156l-45 139q-47 -74 -121.5 -115.5t-168.5 -41.5q-162 0 -246 96.5t-84 269.5v565h225v-544q0 -187 160 -187q100 0 156.5 74t56.5 184v473z" />
    <glyph glyph-name="udieresis" unicode="&#xfc;" horiz-adv-x="1071" 
d="M356 1112q-53 0 -86.5 35t-33.5 84t33 85t87 36q52 0 86.5 -36t34.5 -83q0 -48 -34 -84.5t-87 -36.5zM709 1112q-54 0 -88.5 35.5t-34.5 83.5t35 84.5t88 36.5t86.5 -36.5t33.5 -84.5t-34 -83.5t-86 -35.5zM717 913h223v-913h-156l-45 141q-47 -75 -121 -117t-169 -42
q-162 0 -246 96.5t-84 269.5v565h225v-544q0 -187 160 -187q100 0 156.5 74t56.5 184v473z" />
    <glyph glyph-name="yacute" unicode="&#xfd;" horiz-adv-x="1001" 
d="M721 1276l-324 -209l-92 104l291 250zM750 913h233v-6l-539 -1358h-237v5l203 469l-392 884v6h242l195 -467q37 -85 61 -176q17 64 55 176z" />
    <glyph glyph-name="thorn" unicode="&#xfe;" horiz-adv-x="1169" 
d="M655 936q190 0 314.5 -136t124.5 -343q0 -210 -123.5 -345t-313.5 -135q-92 0 -172.5 34t-134.5 95q4 -126 4 -208v-349h-223v1926h223v-408q0 -128 -6 -266q114 135 307 135zM610 172q115 0 185.5 78.5t70.5 206.5q0 127 -71 205.5t-187 78.5q-120 0 -192 -78t-72 -206
t72.5 -206.5t193.5 -78.5z" />
    <glyph glyph-name="ydieresis" unicode="&#xff;" horiz-adv-x="1001" 
d="M326 1112q-53 0 -87 35t-34 84q0 48 33.5 84.5t87.5 36.5q52 0 86 -35.5t34 -83.5t-33.5 -84.5t-86.5 -36.5zM678 1112q-54 0 -88.5 35.5t-34.5 83.5t35 84.5t88 36.5t87 -36.5t34 -84.5q0 -47 -34.5 -83t-86.5 -36zM750 913h233v-6l-539 -1358h-237v5l203 469l-392 884
v6h242l195 -467q38 -90 61 -178q14 52 55 178z" />
    <glyph glyph-name="Amacron" unicode="&#x100;" horiz-adv-x="1406" 
d="M410 1579v174h581v-174h-581zM741 1401l656 -1395v-6h-252l-115 252h-651l-115 -252h-254v4l658 1397h73zM705 1012q-45 -124 -95 -238l-151 -332h491l-151 332q-38 85 -94 238z" />
    <glyph glyph-name="amacron" unicode="&#x101;" horiz-adv-x="991" 
d="M762 1282v-162h-549v162h549zM496 930q177 0 276.5 -88t99.5 -252v-590h-149l-41 137q-110 -155 -326 -155q-128 0 -207 68.5t-79 187.5q0 154 124.5 238.5t337.5 84.5q49 0 115 -4v41q0 70 -48.5 105.5t-137.5 35.5q-133 0 -285 -73l-63 170q208 94 383 94zM422 150
q100 0 164 70t67 192q-56 6 -106 6q-122 0 -189 -41.5t-67 -116.5q0 -53 34.5 -81.5t96.5 -28.5z" />
    <glyph glyph-name="Abreve" unicode="&#x102;" horiz-adv-x="1406" 
d="M705 1520q-108 0 -189.5 60.5t-112.5 178.5l140 49q15 -56 60 -88t102 -32t101.5 32t59.5 88l140 -49q-31 -118 -112 -178.5t-189 -60.5zM741 1401l656 -1395v-6h-252l-115 252h-651l-115 -252h-254v4l658 1397h73zM705 1012q-45 -124 -95 -238l-151 -332h491l-151 332
q-38 85 -94 238z" />
    <glyph glyph-name="abreve" unicode="&#x103;" horiz-adv-x="991" 
d="M487 1065q-99 0 -171.5 55.5t-102.5 167.5l127 55q15 -56 55 -87t92 -31q53 0 94 31.5t54 86.5l127 -55q-28 -111 -101.5 -167t-173.5 -56zM496 930q177 0 276.5 -88t99.5 -252v-590h-149l-41 137q-110 -155 -326 -155q-128 0 -207 68.5t-79 187.5q0 154 124.5 238.5
t337.5 84.5q49 0 115 -4v41q0 70 -48.5 105.5t-137.5 35.5q-133 0 -285 -73l-63 170q208 94 383 94zM422 150q100 0 164 70t67 192q-56 6 -106 6q-122 0 -189 -41.5t-67 -116.5q0 -53 34.5 -81.5t96.5 -28.5z" />
    <glyph glyph-name="Aogonek" unicode="&#x104;" horiz-adv-x="1406" 
d="M1360 -254l49 -156q-85 -57 -197 -57q-107 0 -164 51t-57 137q0 136 154 281l-115 250h-651l-115 -252h-254v4l658 1397h73l656 -1395v-6h-29q-79 -58 -121.5 -115.5t-42.5 -105.5q0 -29 18 -45.5t52 -16.5q42 0 86 29zM459 442h491l-151 332q-38 85 -94 238
q-45 -124 -95 -238z" />
    <glyph glyph-name="aogonek" unicode="&#x105;" horiz-adv-x="991" 
d="M864 -254l49 -137q-74 -53 -184 -53q-102 0 -155.5 51.5t-53.5 128.5q0 142 193 299l-31 102q-110 -155 -326 -155q-128 0 -207 68.5t-79 187.5q0 154 124.5 238.5t337.5 84.5q49 0 115 -4v41q0 70 -48.5 105.5t-137.5 35.5q-133 0 -285 -73l-63 170q208 94 383 94
q177 0 276.5 -88t99.5 -252v-590q-159 -128 -159 -223q0 -60 65 -60q42 0 86 29zM422 150q100 0 164 70t67 192q-56 6 -106 6q-122 0 -189 -41.5t-67 -116.5q0 -53 34.5 -81.5t96.5 -28.5z" />
    <glyph glyph-name="Cacute" unicode="&#x106;" horiz-adv-x="1417" 
d="M707 1528l-97 110l303 260l134 -153zM811 -27q-158 0 -293 57t-227.5 155t-144.5 231t-52 282q0 155 54 289t149 229t229.5 149t290.5 54q157 0 281.5 -49t242.5 -156l-124 -163q-162 149 -394 149q-213 0 -347 -140.5t-134 -361.5q0 -217 132 -361t341 -144
q257 0 406 196l151 -156q-211 -260 -561 -260z" />
    <glyph glyph-name="cacute" unicode="&#x107;" horiz-adv-x="944" 
d="M446 1067l-92 104l291 250l125 -145zM545 -27q-88 0 -171 31.5t-150.5 90t-108.5 153t-41 209.5q0 145 66 256t174.5 168t240.5 57q199 0 340 -123l-109 -149q-50 41 -99.5 59t-115.5 18q-118 0 -195 -79t-77 -207q0 -131 77 -209t191 -78q133 0 234 94l112 -149
q-79 -73 -164.5 -107.5t-203.5 -34.5z" />
    <glyph glyph-name="Ccircumflex" unicode="&#x108;" horiz-adv-x="1417" 
d="M594 1511l-86 107l289 225h37l286 -227l-84 -105l-221 142zM811 -27q-158 0 -293 57t-227.5 155t-144.5 231t-52 282q0 155 54 289t149 229t229.5 149t290.5 54q157 0 281.5 -49t242.5 -156l-124 -163q-162 149 -394 149q-213 0 -347 -140.5t-134 -361.5q0 -217 132 -361
t341 -144q257 0 406 196l151 -156q-211 -260 -561 -260z" />
    <glyph glyph-name="ccircumflex" unicode="&#x109;" horiz-adv-x="944" 
d="M354 1051l-82 102l260 217h35l256 -219l-80 -100l-194 137zM545 -27q-88 0 -171 31.5t-150.5 90t-108.5 153t-41 209.5q0 145 66 256t174.5 168t240.5 57q199 0 340 -123l-109 -149q-50 41 -99.5 59t-115.5 18q-118 0 -195 -79t-77 -207q0 -131 77 -209t191 -78
q133 0 234 94l112 -149q-79 -73 -164.5 -107.5t-203.5 -34.5z" />
    <glyph glyph-name="Cdotaccent" unicode="&#x10a;" horiz-adv-x="1417" 
d="M817 1559q-60 0 -97.5 38.5t-37.5 94.5t37 96.5t98 40.5q62 0 99.5 -40.5t37.5 -98.5q0 -54 -38.5 -92.5t-98.5 -38.5zM811 -27q-158 0 -293 57t-227.5 155t-144.5 231t-52 282q0 155 54 289t149 229t229.5 149t290.5 54q157 0 281.5 -49t242.5 -156l-124 -163
q-162 149 -394 149q-213 0 -347 -140.5t-134 -361.5q0 -217 132 -361t341 -144q257 0 406 196l151 -156q-211 -260 -561 -260z" />
    <glyph glyph-name="cdotaccent" unicode="&#x10b;" horiz-adv-x="944" 
d="M549 1098q-57 0 -94 37t-37 92q0 57 37 95t94 38q58 0 94.5 -37.5t36.5 -95.5q0 -55 -37 -92t-94 -37zM545 -27q-88 0 -171 31.5t-150.5 90t-108.5 153t-41 209.5q0 145 66 256t174.5 168t240.5 57q199 0 340 -123l-109 -149q-50 41 -99.5 59t-115.5 18q-118 0 -195 -79
t-77 -207q0 -131 77 -209t191 -78q133 0 234 94l112 -149q-79 -73 -164.5 -107.5t-203.5 -34.5z" />
    <glyph glyph-name="Ccaron" unicode="&#x10c;" horiz-adv-x="1417" 
d="M797 1518l-285 227l84 104l219 -141l221 141l86 -106l-288 -225h-37zM811 -27q-158 0 -293 57t-227.5 155t-144.5 231t-52 282q0 155 54 289t149 229t229.5 149t290.5 54q157 0 281.5 -49t242.5 -156l-124 -163q-162 149 -394 149q-213 0 -347 -140.5t-134 -361.5
q0 -217 132 -361t341 -144q257 0 406 196l151 -156q-211 -260 -561 -260z" />
    <glyph glyph-name="ccaron" unicode="&#x10d;" horiz-adv-x="944" 
d="M532 1061l-256 221l78 98l195 -137l196 137l82 -100l-260 -219h-35zM545 -27q-88 0 -171 31.5t-150.5 90t-108.5 153t-41 209.5q0 145 66 256t174.5 168t240.5 57q199 0 340 -123l-109 -149q-50 41 -99.5 59t-115.5 18q-118 0 -195 -79t-77 -207q0 -131 77 -209t191 -78
q133 0 234 94l112 -149q-79 -73 -164.5 -107.5t-203.5 -34.5z" />
    <glyph glyph-name="Dcaron" unicode="&#x10e;" horiz-adv-x="1472" 
d="M647 1518l-285 227l84 104l220 -141l221 141l86 -106l-289 -225h-37zM170 0v1393h498q208 0 370 -89.5t251 -249t89 -360.5q0 -200 -87 -357.5t-249 -247t-372 -89.5h-500zM412 209h247q217 0 345.5 135t128.5 350q0 216 -129.5 353t-346.5 137h-245v-975z" />
    <glyph glyph-name="dcaron" unicode="&#x10f;" horiz-adv-x="1208" 
d="M817 1067v408h223v-1475h-155l-39 137q-118 -160 -328 -160q-196 0 -318 134.5t-122 351.5q0 206 123.5 339.5t316.5 133.5q91 0 170.5 -35.5t134.5 -97.5q-6 129 -6 264zM1178 1475h213q-20 -219 -105 -377h-153q42 192 45 377zM563 172q119 0 190.5 78.5t71.5 206.5
q0 126 -72 204t-190 78q-117 0 -188.5 -78t-71.5 -204q0 -128 71.5 -206.5t188.5 -78.5z" />
    <glyph glyph-name="Dcroat" unicode="&#x110;" horiz-adv-x="1488" 
d="M684 1393q156 0 289 -52.5t225.5 -144.5t144.5 -221.5t52 -280.5q0 -150 -51 -278.5t-142.5 -220t-224.5 -143.5t-291 -52h-500v625h-143v172h143v596h498zM676 209q218 0 346.5 134.5t128.5 350.5q0 215 -130 352.5t-347 137.5h-246v-387h336v-172h-336v-416h248z" />
    <glyph glyph-name="dcroat" unicode="&#x111;" horiz-adv-x="1171" 
d="M1157 1239v-137h-117v-1102h-155l-37 133q-121 -156 -332 -156q-196 0 -318 133.5t-122 346.5q0 205 123.5 337t316.5 132q92 0 171.5 -34.5t133.5 -96.5q-6 126 -6 260v47h-278v137h278v236h225v-236h117zM561 172q119 0 191.5 78t72.5 203q0 123 -73 199.5t-191 76.5
q-116 0 -188 -77t-72 -199q0 -125 71.5 -203t188.5 -78z" />
    <glyph glyph-name="Emacron" unicode="&#x112;" horiz-adv-x="1148" 
d="M317 1579v174h582v-174h-582zM412 213h653v-213h-895v1393h877v-213h-635v-369h555v-207h-555v-391z" />
    <glyph glyph-name="emacron" unicode="&#x113;" horiz-adv-x="1028" 
d="M254 1120v162h549v-162h-549zM545 938q193 0 304.5 -121.5t111.5 -327.5q0 -23 -9 -106h-655q21 -108 99.5 -166.5t191.5 -58.5q142 0 241 86l95 -144q-157 -127 -357 -127q-219 0 -356 135t-137 351q0 203 133 341t338 138zM541 756q-92 0 -158 -58.5t-84 -162.5h451
q-4 106 -61.5 163.5t-147.5 57.5z" />
    <glyph glyph-name="Ebreve" unicode="&#x114;" horiz-adv-x="1148" 
d="M612 1520q-108 0 -189 60.5t-112 178.5l140 49q15 -56 59.5 -88t101.5 -32t102 32t60 88l139 -49q-31 -118 -112 -178.5t-189 -60.5zM412 213h653v-213h-895v1393h877v-213h-635v-369h555v-207h-555v-391z" />
    <glyph glyph-name="ebreve" unicode="&#x115;" horiz-adv-x="1028" 
d="M528 1065q-99 0 -171.5 55.5t-102.5 167.5l127 55q15 -56 55 -87t92 -31q53 0 94 31.5t54 86.5l127 -55q-28 -111 -101.5 -167t-173.5 -56zM545 938q193 0 304.5 -121.5t111.5 -327.5q0 -23 -9 -106h-655q21 -108 99.5 -166.5t191.5 -58.5q142 0 241 86l95 -144
q-157 -127 -357 -127q-219 0 -356 135t-137 351q0 203 133 341t338 138zM541 756q-92 0 -158 -58.5t-86 -162.5h453q-4 106 -61.5 163.5t-147.5 57.5z" />
    <glyph glyph-name="Edotaccent" unicode="&#x116;" horiz-adv-x="1148" 
d="M612 1559q-60 0 -97.5 38.5t-37.5 94.5t37 96.5t98 40.5q62 0 100 -40.5t38 -98.5q0 -54 -39 -92.5t-99 -38.5zM412 213h653v-213h-895v1393h877v-213h-635v-369h555v-207h-555v-391z" />
    <glyph glyph-name="edotaccent" unicode="&#x117;" horiz-adv-x="1028" 
d="M528 1098q-56 0 -93.5 37t-37.5 92q0 57 37 95t94 38q58 0 94.5 -37.5t36.5 -95.5q0 -55 -37.5 -92t-93.5 -37zM545 938q193 0 304.5 -121.5t111.5 -327.5q0 -23 -9 -106h-655q21 -108 99.5 -166.5t191.5 -58.5q142 0 241 86l95 -144q-157 -127 -357 -127
q-219 0 -356 135t-137 351q0 203 133 341t338 138zM541 756q-92 0 -158 -58.5t-84 -162.5h451q-4 106 -61.5 163.5t-147.5 57.5z" />
    <glyph glyph-name="Eogonek" unicode="&#x118;" horiz-adv-x="1148" 
d="M1042 -254l50 -156q-85 -57 -197 -57q-107 0 -164 51t-57 137q0 129 166 279h-670v1393h877v-213h-635v-369h555v-207h-555v-391h653v-213q-174 -135 -174 -223q0 -60 65 -60q42 0 86 29z" />
    <glyph glyph-name="eogonek" unicode="&#x119;" horiz-adv-x="1028" 
d="M535 938q200 0 311.5 -119.5t111.5 -326.5q0 -35 -8 -109h-653q21 -108 98.5 -166.5t192.5 -58.5q141 0 241 84l93 -142l-23 -18q-122 -105 -172.5 -177t-50.5 -126q0 -62 67 -62q43 0 86 29l50 -137q-77 -53 -185 -53q-103 0 -157 50t-54 128q0 119 140 243
q-18 -2 -58 -2q-223 0 -357 133.5t-134 350.5q0 202 130 340.5t331 138.5zM535 754q-91 0 -154.5 -57.5t-83.5 -161.5h448q0 108 -56 163.5t-154 55.5z" />
    <glyph glyph-name="Ecaron" unicode="&#x11a;" horiz-adv-x="1148" 
d="M592 1518l-285 227l84 104l219 -141l221 141l87 -106l-289 -225h-37zM412 213h653v-213h-895v1393h877v-213h-635v-369h555v-207h-555v-391z" />
    <glyph glyph-name="ecaron" unicode="&#x11b;" horiz-adv-x="1028" 
d="M547 1061h-35l-256 221l78 98l194 -137l197 137l82 -100zM545 938q193 0 304.5 -121.5t111.5 -327.5q0 -23 -9 -106h-655q21 -108 99.5 -166.5t191.5 -58.5q142 0 241 86l95 -144q-157 -127 -357 -127q-219 0 -356 135t-137 351q0 203 133 341t338 138zM541 756
q-92 0 -158 -58.5t-86 -162.5h453q-4 106 -61.5 163.5t-147.5 57.5z" />
    <glyph glyph-name="Gcircumflex" unicode="&#x11c;" horiz-adv-x="1499" 
d="M594 1511l-86 107l289 225h37l286 -227l-84 -105l-221 142zM807 780h588v-551q-103 -125 -250 -190.5t-328 -65.5q-158 0 -293 55.5t-229.5 151.5t-147.5 230t-53 288q0 202 88 365t255 259.5t384 96.5q322 0 539 -223l-133 -160q-169 166 -398 166q-222 0 -355.5 -141
t-133.5 -365q0 -228 138 -368t360 -140q211 0 342 134v258h-373v200z" />
    <glyph glyph-name="gcircumflex" unicode="&#x11d;" horiz-adv-x="1171" 
d="M561 1188l-194 -137l-82 102l260 217h35l256 -219l-80 -100zM893 913h147v-950q0 -213 -130.5 -325.5t-348.5 -112.5q-243 0 -414 139l86 168q131 -106 310 -106q128 0 200 59t72 174q0 96 4 147q-116 -122 -303 -122q-195 0 -316.5 132.5t-121.5 342.5t121 343.5
t313 133.5q104 0 191 -39.5t145 -116.5zM561 176q125 0 194.5 78.5t69.5 204.5q0 125 -69 203.5t-193 78.5q-120 0 -189 -77.5t-69 -204.5q0 -126 69.5 -204.5t186.5 -78.5z" />
    <glyph glyph-name="Gbreve" unicode="&#x11e;" horiz-adv-x="1499" 
d="M815 1520q-108 0 -189 60.5t-112 178.5l139 49q15 -56 60 -88t102 -32t102 32t60 88l139 -49q-31 -118 -112 -178.5t-189 -60.5zM807 780h588v-551q-103 -125 -250 -190.5t-328 -65.5q-158 0 -293 55.5t-229.5 151.5t-147.5 230t-53 288q0 202 88 365t255 259.5t384 96.5
q322 0 539 -223l-133 -160q-169 166 -398 166q-222 0 -355.5 -141t-133.5 -365q0 -228 138 -368t360 -140q211 0 342 134v258h-373v200z" />
    <glyph glyph-name="gbreve" unicode="&#x11f;" horiz-adv-x="1171" 
d="M561 1065q-99 0 -171.5 55.5t-102.5 167.5l127 55q15 -56 55 -87t92 -31q53 0 94 31.5t54 86.5l127 -55q-28 -111 -101.5 -167t-173.5 -56zM893 913h147v-950q0 -213 -130.5 -325.5t-348.5 -112.5q-243 0 -414 139l86 168q131 -106 310 -106q128 0 200 59t72 174
q0 96 4 147q-116 -122 -303 -122q-195 0 -316.5 132.5t-121.5 342.5t121 343.5t313 133.5q104 0 191 -39.5t145 -116.5zM561 176q125 0 194.5 78.5t69.5 204.5q0 125 -69 203.5t-193 78.5q-120 0 -189 -77.5t-69 -204.5q0 -126 69.5 -204.5t186.5 -78.5z" />
    <glyph glyph-name="Gdotaccent" unicode="&#x120;" horiz-adv-x="1499" 
d="M815 1559q-60 0 -97.5 38.5t-37.5 94.5t37 96.5t98 40.5q62 0 99.5 -40.5t37.5 -98.5q0 -54 -38.5 -92.5t-98.5 -38.5zM807 780h588v-551q-103 -125 -250 -190.5t-328 -65.5q-158 0 -293 55.5t-229.5 151.5t-147.5 230t-53 288q0 202 88 365t255 259.5t384 96.5
q322 0 539 -223l-133 -160q-169 166 -398 166q-222 0 -355.5 -141t-133.5 -365q0 -228 138 -368t360 -140q211 0 342 134v258h-373v200z" />
    <glyph glyph-name="gdotaccent" unicode="&#x121;" horiz-adv-x="1171" 
d="M561 1098q-57 0 -94 37t-37 92q0 57 37 95t94 38q58 0 94.5 -37.5t36.5 -95.5q0 -55 -37 -92t-94 -37zM893 913h147v-950q0 -213 -130.5 -325.5t-348.5 -112.5q-243 0 -414 139l86 168q131 -106 310 -106q128 0 200 59t72 174q0 48 4 150q-119 -125 -303 -125
q-195 0 -316.5 132.5t-121.5 342.5t121 343.5t313 133.5q104 0 191 -39.5t145 -116.5zM561 176q125 0 194.5 78.5t69.5 204.5q0 125 -69 203.5t-193 78.5q-120 0 -189 -77.5t-69 -204.5q0 -126 69.5 -204.5t186.5 -78.5z" />
    <glyph glyph-name="uni0122" unicode="&#x122;" horiz-adv-x="1499" 
d="M807 780h588v-551q-103 -125 -250 -190.5t-328 -65.5q-158 0 -293 55.5t-229.5 151.5t-147.5 230t-53 288q0 202 88 365t255 259.5t384 96.5q322 0 539 -223l-133 -160q-169 166 -398 166q-222 0 -355.5 -141t-133.5 -365q0 -228 138 -368t360 -140q211 0 342 134v258
h-373v200zM690 -588q55 185 55 393h211q-17 -230 -116 -393h-150z" />
    <glyph glyph-name="uni0123" unicode="&#x123;" horiz-adv-x="1171" 
d="M715 1470q-53 -175 -53 -385h-207q17 226 114 385h146zM893 913h147v-950q0 -213 -130.5 -325.5t-348.5 -112.5q-243 0 -414 139l86 168q131 -106 310 -106q128 0 200 59t72 174q0 96 4 147q-116 -122 -303 -122q-195 0 -316.5 132.5t-121.5 342.5t121 343.5t313 133.5
q104 0 191 -39.5t145 -116.5zM561 176q125 0 194.5 78.5t69.5 204.5q0 125 -69 203.5t-193 78.5q-120 0 -189 -77.5t-69 -204.5q0 -126 69.5 -204.5t186.5 -78.5z" />
    <glyph glyph-name="Hcircumflex" unicode="&#x124;" horiz-adv-x="1501" 
d="M526 1511l-86 107l289 225h37l287 -227l-84 -105l-221 142zM170 0v1393h242v-580h678v580h241v-1393h-241v590h-678v-590h-242z" />
    <glyph glyph-name="hcircumflex" unicode="&#x125;" horiz-adv-x="1077" 
d="M463 1593l-221 142l-222 -142l-86 107l289 225h37l287 -227zM633 938q158 0 240.5 -96.5t82.5 -268.5v-573h-223v555q0 182 -158 182q-105 0 -163 -76t-58 -190v-471h-223v1475h223v-545q0 -84 -2 -139q93 147 281 147z" />
    <glyph glyph-name="Hbar" unicode="&#x126;" horiz-adv-x="1525" 
d="M1470 1182v-131h-127v-1051h-241v590h-678v-590h-242v1051h-127v131h127v211h242v-211h678v211h241v-211h127zM1102 809v242h-678v-242h678z" />
    <glyph glyph-name="hbar" unicode="&#x127;" horiz-adv-x="1077" 
d="M635 922q157 0 239 -96t82 -261v-565h-223v547q0 82 -39.5 128t-120.5 46q-103 0 -161 -75.5t-58 -188.5v-457h-223v1102h-123v137h123v236h223v-236h328v-137h-328v-184q0 -85 -4 -136q98 140 285 140z" />
    <glyph glyph-name="Itilde" unicode="&#x128;" horiz-adv-x="581" 
d="M102 1556l-131 76q35 92 82.5 138.5t114.5 46.5q58 0 139 -41q64 -29 90 -29q45 0 78 70l133 -72q-70 -182 -196 -182q-58 0 -121 32q-5 2 -18.5 8.5t-19.5 9t-17 7.5t-18 7t-16 3.5t-16 1.5q-25 0 -44.5 -17t-39.5 -59zM170 0v1393h242v-1393h-242z" />
    <glyph glyph-name="itilde" unicode="&#x129;" horiz-adv-x="485" 
d="M78 1124l-125 68q65 168 180 168q58 0 121 -35q64 -31 88 -31q42 0 70 62l125 -68q-68 -164 -181 -164q-46 0 -110 31q-68 33 -94 33q-49 0 -74 -64zM131 0v913h223v-913h-223z" />
    <glyph glyph-name="Imacron" unicode="&#x12a;" horiz-adv-x="581" 
d="M-4 1579v174h582v-174h-582zM170 0v1393h242v-1393h-242z" />
    <glyph glyph-name="imacron" unicode="&#x12b;" horiz-adv-x="485" 
d="M16 1118v166h451v-166h-451zM131 0v913h223v-913h-223z" />
    <glyph glyph-name="Ibreve" unicode="&#x12c;" horiz-adv-x="581" 
d="M291 1520q-108 0 -189 60.5t-112 178.5l139 49q15 -56 60 -88t102 -32t102 32t60 88l139 -49q-31 -118 -112 -178.5t-189 -60.5zM170 0v1393h242v-1393h-242z" />
    <glyph glyph-name="ibreve" unicode="&#x12d;" horiz-adv-x="485" 
d="M244 1065q-99 0 -172 56t-103 167l127 55q15 -56 55.5 -87t92.5 -31q53 0 93.5 31.5t53.5 86.5l127 -55q-28 -111 -101 -167t-173 -56zM131 0v913h223v-913h-223z" />
    <glyph glyph-name="Iogonek" unicode="&#x12e;" horiz-adv-x="581" 
d="M444 -254l50 -156q-85 -57 -197 -57q-108 0 -165.5 52t-57.5 139q0 129 116 276h-20v1393h242v-1393q-119 -136 -119 -223q0 -60 67 -60q40 0 84 29z" />
    <glyph glyph-name="iogonek" unicode="&#x12f;" horiz-adv-x="485" 
d="M244 1102q-60 0 -99 39t-39 96q0 58 39.5 97.5t98.5 39.5t98 -40t39 -99q0 -57 -39 -95t-98 -38zM387 -254l49 -137q-74 -53 -184 -53q-103 0 -157 48.5t-54 127.5q0 123 119 268h-29v913h223v-913q-118 -127 -118 -221q0 -62 65 -62q43 0 86 29z" />
    <glyph glyph-name="Idotaccent" unicode="&#x130;" horiz-adv-x="581" 
d="M291 1559q-60 0 -97.5 38.5t-37.5 94.5t37 96.5t98 40.5q62 0 99.5 -40.5t37.5 -98.5q0 -54 -38.5 -92.5t-98.5 -38.5zM170 0v1393h242v-1393h-242z" />
    <glyph glyph-name="dotlessi" unicode="&#x131;" horiz-adv-x="485" 
d="M131 0v913h223v-913h-223z" />
    <glyph glyph-name="IJ" unicode="&#x132;" horiz-adv-x="1603" 
d="M170 0v1393h242v-1393h-242zM993 -27q-226 0 -397 129l113 185q126 -99 268 -99q114 0 173.5 66.5t59.5 196.5v942h242v-942q0 -235 -117.5 -356.5t-341.5 -121.5z" />
    <glyph glyph-name="ij" unicode="&#x133;" horiz-adv-x="980" 
d="M244 1104q-63 0 -101.5 38t-38.5 95t38.5 95t101.5 38t101 -38.5t38 -96.5q0 -56 -38.5 -93.5t-100.5 -37.5zM735 1104q-61 0 -99 38t-38 93q0 58 37.5 96.5t99.5 38.5q65 0 103.5 -38.5t38.5 -96.5q0 -56 -39.5 -93.5t-102.5 -37.5zM131 0v913h223v-913h-223zM420 -475
l-29 190q72 5 118 23.5t71.5 54t35 81.5t9.5 116v923h223v-923q0 -116 -21 -197.5t-70.5 -140.5t-132 -90t-204.5 -37z" />
    <glyph glyph-name="Jcircumflex" unicode="&#x134;" horiz-adv-x="1021" 
d="M526 1511l-86 107l289 225h37l287 -227l-84 -105l-219 142zM412 -27q-227 0 -398 129l113 185q126 -99 268 -99q234 0 234 263v942h241v-942q0 -235 -117 -356.5t-341 -121.5z" />
    <glyph glyph-name="jcircumflex" unicode="&#x135;" horiz-adv-x="493" 
d="M55 1051l-82 102l260 217h35l256 -219l-80 -100l-194 137zM-66 -475l-28 190q72 5 118 23.5t71 54t34.5 81.5t9.5 116v923h223v-923q0 -116 -21 -197.5t-70.5 -140.5t-132 -90t-204.5 -37z" />
    <glyph glyph-name="uni0136" unicode="&#x136;" horiz-adv-x="1241" 
d="M637 702l592 -694v-8h-285l-532 623v-623h-242v1393h242v-625l499 625h275v-7zM506 -588q55 185 55 393h211q-17 -228 -117 -393h-149z" />
    <glyph glyph-name="uni0137" unicode="&#x137;" horiz-adv-x="952" 
d="M547 471l393 -459v-12h-258l-328 389v-389h-223v1475h223v-924l303 362h252v-10zM369 -571q55 177 55 385h205q-17 -228 -113 -385h-147z" />
    <glyph glyph-name="kgreenlandic" unicode="&#x138;" horiz-adv-x="952" 
d="M547 471l393 -461v-10h-256l-330 389v-389h-223v913h223v-362l301 362h254v-8z" />
    <glyph glyph-name="Lacute" unicode="&#x139;" horiz-adv-x="1067" 
d="M184 1528l-96 110l303 260l133 -153zM170 0v1393h242v-1170h604v-223h-846z" />
    <glyph glyph-name="lacute" unicode="&#x13a;" horiz-adv-x="487" 
d="M135 1610l-96 110l303 260l133 -153zM131 0v1475h223l2 -1475h-225z" />
    <glyph glyph-name="uni013B" unicode="&#x13b;" horiz-adv-x="1067" 
d="M170 0v1393h242v-1170h604v-223h-846zM430 -588q55 185 55 393h211q-17 -230 -116 -393h-150z" />
    <glyph glyph-name="uni013C" unicode="&#x13c;" horiz-adv-x="487" 
d="M131 0v1475h223l2 -1475h-225zM94 -571q56 180 56 385h204q-17 -230 -112 -385h-148z" />
    <glyph glyph-name="Lcaron" unicode="&#x13d;" horiz-adv-x="1067" 
d="M170 0v1393h242v-1170h604v-223h-846zM641 1026q55 163 55 367h211q-17 -220 -114 -367h-152z" />
    <glyph glyph-name="lcaron" unicode="&#x13e;" horiz-adv-x="520" 
d="M131 0v1475h223v-1475h-223zM446 1098q43 196 43 377h216q-20 -219 -105 -377h-154z" />
    <glyph glyph-name="Ldot" unicode="&#x13f;" horiz-adv-x="1067" 
d="M170 0v1393h242v-1170h604v-223h-846zM801 618q-57 0 -98 36t-41 102t41 101.5t98 35.5t98 -35.5t41 -101.5t-41 -102t-98 -36z" />
    <glyph glyph-name="ldot" unicode="&#x140;" horiz-adv-x="782" 
d="M131 0v1475h223v-1475h-223zM616 582q-56 0 -96.5 35t-40.5 100t40.5 100t96.5 35q57 0 97.5 -35t40.5 -100t-40.5 -100t-97.5 -35z" />
    <glyph glyph-name="Lslash" unicode="&#x141;" horiz-adv-x="1077" 
d="M422 223h606v-223h-848v541l-117 -41l-59 162l176 59v672h242v-588l266 90l57 -162l-323 -110v-400z" />
    <glyph glyph-name="lslash" unicode="&#x142;" horiz-adv-x="610" 
d="M594 741l-176 -63v-678h-225v594l-125 -45l-54 153l179 66v707h225v-625l125 45z" />
    <glyph glyph-name="Nacute" unicode="&#x143;" horiz-adv-x="1533" 
d="M987 1745l-340 -217l-96 110l303 260zM1124 1393h240v-1401h-94l-752 821q-83 87 -117 127q9 -115 9 -152v-788h-240v1401h92l729 -801q93 -97 139 -149q-6 102 -6 186v756z" />
    <glyph glyph-name="nacute" unicode="&#x144;" horiz-adv-x="1077" 
d="M756 1276l-324 -209l-92 104l291 250zM635 938q156 0 238.5 -95.5t82.5 -271.5v-571h-223v551q0 186 -155 186q-102 0 -163 -66t-61 -169v-502h-223v913h152l45 -143q108 168 307 168z" />
    <glyph glyph-name="uni0145" unicode="&#x145;" horiz-adv-x="1533" 
d="M1124 1393h240v-1401h-94l-752 821q-83 87 -117 127q9 -115 9 -152v-788h-240v1401h92l729 -801q93 -97 139 -149q-6 102 -6 186v756zM635 -588q55 185 55 393h211q-17 -228 -117 -393h-149z" />
    <glyph glyph-name="uni0146" unicode="&#x146;" horiz-adv-x="1077" 
d="M635 938q156 0 238.5 -95.5t82.5 -271.5v-571h-223v551q0 186 -155 186q-102 0 -163 -66t-61 -169v-502h-223v913h152l45 -143q108 168 307 168zM395 -571q56 180 56 385h204q-17 -230 -112 -385h-148z" />
    <glyph glyph-name="Ncaron" unicode="&#x147;" horiz-adv-x="1533" 
d="M772 1518h-37l-284 227l84 104l219 -141l221 141l86 -106zM1124 1393h240v-1401h-94l-752 821q-83 87 -117 127q9 -115 9 -152v-788h-240v1401h92l729 -801q93 -97 139 -149q-6 102 -6 186v756z" />
    <glyph glyph-name="ncaron" unicode="&#x148;" horiz-adv-x="1077" 
d="M553 1061h-35l-256 221l78 98l195 -137l196 137l82 -100zM635 938q156 0 238.5 -95.5t82.5 -271.5v-571h-223v551q0 186 -155 186q-102 0 -163 -66t-61 -169v-502h-223v913h152l45 -143q108 168 307 168z" />
    <glyph glyph-name="napostrophe" unicode="&#x149;" horiz-adv-x="1128" 
d="M-59 938q55 174 55 393h211q-17 -226 -115 -393h-151zM182 0v913h172l31 -145q94 170 299 170q157 0 240.5 -96t83.5 -269v-573h-224v553q0 184 -155 184q-105 0 -164 -76t-59 -188v-473h-224z" />
    <glyph glyph-name="Eng" unicode="&#x14a;" horiz-adv-x="1536" 
d="M1126 1393h240v-1375q0 -232 -117.5 -356.5t-337.5 -124.5l-28 215q117 0 180 66.5t63 195.5v127l-624 686q-56 60 -96 109q4 -53 4 -135v-801h-240v1401h92l750 -821q87 -96 121 -138q-7 100 -7 148v803z" />
    <glyph glyph-name="eng" unicode="&#x14b;" horiz-adv-x="1077" 
d="M575 -457l-26 189q103 3 143.5 49.5t40.5 152.5v617q0 186 -155 186q-102 0 -163 -66t-61 -169v-502h-223v913h152l43 -145q107 170 309 170q156 0 238.5 -95.5t82.5 -271.5v-630q0 -195 -97.5 -296.5t-283.5 -101.5z" />
    <glyph glyph-name="Omacron" unicode="&#x14c;" horiz-adv-x="1638" 
d="M524 1579v174h582v-174h-582zM819 -27q-209 0 -375.5 96t-258 261.5t-91.5 367.5q0 155 54 289t148.5 229t230 149t292.5 54q212 0 377.5 -92.5t256.5 -257t91 -371.5q0 -152 -53.5 -285.5t-147.5 -230.5t-230 -153t-294 -56zM819 193q143 0 253 68t168 182t58 255
q0 220 -131 361t-348 141q-215 0 -346 -141t-131 -361q0 -105 34 -197.5t95 -160.5t151 -107.5t197 -39.5z" />
    <glyph glyph-name="omacron" unicode="&#x14d;" horiz-adv-x="1128" 
d="M289 1120v162h549v-162h-549zM563 -27q-215 0 -352 136t-137 348t137 346.5t352 134.5q216 0 354 -134.5t138 -346.5t-138.5 -348t-353.5 -136zM563 172q118 0 191 79.5t73 205.5t-73 205t-191 79q-117 0 -190.5 -79t-73.5 -205t73.5 -205.5t190.5 -79.5z" />
    <glyph glyph-name="Obreve" unicode="&#x14e;" horiz-adv-x="1638" 
d="M819 1520q-108 0 -189 60.5t-112 178.5l139 49q15 -56 60 -88t102 -32t102 32t60 88l139 -49q-31 -118 -112 -178.5t-189 -60.5zM819 -27q-209 0 -375.5 96t-258 261.5t-91.5 367.5q0 155 54 289t148.5 229t230 149t292.5 54q212 0 377.5 -92.5t256.5 -257t91 -371.5
q0 -152 -53.5 -285.5t-147.5 -230.5t-230 -153t-294 -56zM819 193q143 0 253 68t168 182t58 255q0 220 -131 361t-348 141q-215 0 -346 -141t-131 -361q0 -105 34 -197.5t95 -160.5t151 -107.5t197 -39.5z" />
    <glyph glyph-name="obreve" unicode="&#x14f;" horiz-adv-x="1128" 
d="M563 1065q-99 0 -171.5 55.5t-102.5 167.5l127 55q15 -56 55 -87t92 -31q53 0 94 31.5t54 86.5l127 -55q-28 -111 -101.5 -167t-173.5 -56zM563 -27q-215 0 -352 136t-137 348t137 346.5t352 134.5q216 0 354 -134.5t138 -346.5t-138.5 -348t-353.5 -136zM563 172
q118 0 191 79.5t73 205.5t-73 205t-191 79q-117 0 -190.5 -79t-73.5 -205t73.5 -205.5t190.5 -79.5z" />
    <glyph glyph-name="Ohungarumlaut" unicode="&#x150;" horiz-adv-x="1638" 
d="M631 1509l-125 78l192 309l160 -98zM969 1509l-125 84l209 303l155 -106zM819 -27q-209 0 -375.5 96t-258 261.5t-91.5 367.5q0 155 54 289t148.5 229t230 149t292.5 54q212 0 377.5 -92.5t256.5 -257t91 -371.5q0 -152 -53.5 -285.5t-147.5 -230.5t-230 -153t-294 -56z
M819 193q143 0 253 68t168 182t58 255q0 220 -131 361t-348 141q-215 0 -346 -141t-131 -361q0 -105 34 -197.5t95 -160.5t151 -107.5t197 -39.5z" />
    <glyph glyph-name="ohungarumlaut" unicode="&#x151;" horiz-adv-x="1128" 
d="M383 1049l-123 75l191 303l153 -96zM715 1049l-121 81l205 297l153 -102zM563 -27q-215 0 -352 136t-137 348t137 346.5t352 134.5q216 0 354 -134.5t138 -346.5t-138.5 -348t-353.5 -136zM563 172q118 0 191 79.5t73 205.5t-73 205t-191 79q-117 0 -190.5 -79
t-73.5 -205t73.5 -205.5t190.5 -79.5z" />
    <glyph glyph-name="OE" unicode="&#x152;" horiz-adv-x="1888" 
d="M1225 213h577v-213h-792q-105 -27 -205 -27q-154 0 -287.5 56.5t-226 153.5t-145 230t-52.5 283q0 202 88.5 366.5t251.5 260.5t371 96q114 0 205 -26h774v-213h-559v-371h493v-203h-493v-393zM995 221v950q-85 31 -176 31q-212 0 -344.5 -144t-132.5 -362t133.5 -362
t343.5 -144q83 -3 176 31z" />
    <glyph glyph-name="oe" unicode="&#x153;" horiz-adv-x="1734" 
d="M1239 938q193 0 309.5 -119t116.5 -336q0 -47 -6 -100h-649q19 -108 91 -166.5t183 -58.5q76 0 134 20t118 64l92 -142q-155 -125 -352 -125q-128 0 -224 49.5t-149 139.5q-53 -90 -146.5 -139.5t-217.5 -49.5q-206 0 -335.5 136.5t-129.5 349.5q0 208 129.5 342.5
t339.5 134.5q120 0 213.5 -48.5t146.5 -137.5q47 85 135 135.5t201 50.5zM1241 756q-97 0 -156.5 -58t-74.5 -161h438q3 97 -53.5 158t-153.5 61zM555 172q117 0 184.5 79t67.5 208q0 127 -67.5 203.5t-184.5 76.5q-118 0 -187 -76.5t-69 -203.5q0 -129 68.5 -208t187.5 -79
z" />
    <glyph glyph-name="Racute" unicode="&#x154;" horiz-adv-x="1280" 
d="M862 1745l-340 -217l-96 110l303 260zM868 555l357 -549v-6h-275l-327 528h-211v-528h-242v1393h547q206 0 339.5 -124t133.5 -311q0 -146 -86 -253t-236 -150zM412 729h280q119 0 186.5 60.5t67.5 164.5q0 100 -69.5 165t-180.5 65h-284v-455z" />
    <glyph glyph-name="racute" unicode="&#x155;" horiz-adv-x="759" 
d="M643 1276l-324 -209l-92 104l291 250zM590 934q91 0 158 -39l-58 -188q-58 20 -119 20q-98 0 -157.5 -61t-59.5 -168v-498h-223v913h152l43 -135q81 156 264 156z" />
    <glyph glyph-name="uni0156" unicode="&#x156;" horiz-adv-x="1280" 
d="M868 555l357 -549v-6h-275l-327 528h-211v-528h-242v1393h547q206 0 339.5 -124t133.5 -311q0 -146 -86 -253t-236 -150zM412 729h280q119 0 186.5 60.5t67.5 164.5q0 100 -69.5 165t-180.5 65h-284v-455zM508 -588q55 185 55 393h211q-17 -228 -117 -393h-149z" />
    <glyph glyph-name="uni0157" unicode="&#x157;" horiz-adv-x="759" 
d="M590 934q91 0 158 -39l-58 -188q-58 20 -119 20q-98 0 -157.5 -61t-59.5 -168v-498h-223v913h152l43 -135q81 156 264 156zM82 -571q55 177 55 385h205q-17 -228 -113 -385h-147z" />
    <glyph glyph-name="Rcaron" unicode="&#x158;" horiz-adv-x="1280" 
d="M649 1518h-37l-284 227l84 104l219 -141l221 141l86 -106zM868 555l357 -549v-6h-275l-327 528h-211v-528h-242v1393h547q206 0 339.5 -124t133.5 -311q0 -146 -86 -253t-236 -150zM412 729h280q119 0 186.5 60.5t67.5 164.5q0 100 -69.5 165t-180.5 65h-284v-455z" />
    <glyph glyph-name="rcaron" unicode="&#x159;" horiz-adv-x="759" 
d="M438 1061h-35l-256 221l78 98l195 -137l196 137l82 -100zM590 934q91 0 158 -39l-58 -188q-58 20 -119 20q-98 0 -157.5 -61t-59.5 -168v-498h-223v913h152l43 -135q81 156 264 156z" />
    <glyph glyph-name="Sacute" unicode="&#x15a;" horiz-adv-x="1171" 
d="M500 1528l-97 110l304 260l133 -153zM598 -27q-143 0 -275 44t-235 126l113 189q79 -68 180 -106t209 -38q110 0 185 49.5t75 137.5q0 32 -10.5 59.5t-33 49.5t-47 39.5t-63 34t-70 28t-77.5 26.5q-416 136 -416 424q0 119 64.5 207.5t168.5 132t232 43.5
q124 0 231.5 -33t221.5 -108l-105 -180q-169 108 -336 108q-98 0 -164.5 -41t-66.5 -116q0 -37 17 -68.5t41 -53t66 -43t75 -34.5t86 -31q98 -31 170.5 -67.5t134 -87.5t93.5 -121t32 -156q0 -127 -67 -222t-178.5 -143.5t-250.5 -48.5z" />
    <glyph glyph-name="sacute" unicode="&#x15b;" horiz-adv-x="815" 
d="M311 1067l-92 104l291 250l125 -145zM416 -20q-199 0 -355 100l89 158q121 -76 249 -76q62 0 99 25.5t37 68.5q0 16 -6 30.5t-21 27.5t-26.5 21.5t-38.5 20.5t-39.5 17t-45.5 18q-123 47 -190.5 112t-67.5 169q0 121 93 188.5t231 67.5q158 0 299 -82l-78 -150
q-105 54 -203 54q-57 0 -93 -19t-36 -59q0 -41 41.5 -70t124.5 -59q134 -49 204.5 -115t70.5 -172q0 -126 -93 -201t-245 -75z" />
    <glyph glyph-name="Scircumflex" unicode="&#x15c;" horiz-adv-x="1171" 
d="M387 1511l-86 107l289 225h37l286 -227l-84 -105l-221 142zM598 -27q-143 0 -275 44t-235 126l113 189q79 -68 180 -106t209 -38q110 0 185 49.5t75 137.5q0 32 -10.5 59.5t-33 49.5t-47 39.5t-63 34t-70 28t-77.5 26.5q-416 136 -416 424q0 119 64.5 207.5t168.5 132
t232 43.5q124 0 231.5 -33t221.5 -108l-105 -180q-169 108 -336 108q-98 0 -164.5 -41t-66.5 -116q0 -37 17 -68.5t41 -53t66 -43t75 -34.5t86 -31q98 -31 170.5 -67.5t134 -87.5t93.5 -121t32 -156q0 -127 -67 -222t-178.5 -143.5t-250.5 -48.5z" />
    <glyph glyph-name="scircumflex" unicode="&#x15d;" horiz-adv-x="815" 
d="M219 1051l-82 102l260 217h35l256 -219l-80 -100l-194 137zM416 -20q-199 0 -355 100l89 158q121 -76 249 -76q62 0 99 25.5t37 68.5q0 16 -6 30.5t-21 27.5t-26.5 21.5t-38.5 20.5t-39.5 17t-45.5 18q-123 47 -190.5 112t-67.5 169q0 121 93 188.5t231 67.5
q158 0 299 -82l-78 -150q-105 54 -203 54q-57 0 -93 -19t-36 -59q0 -41 41.5 -70t124.5 -59q134 -49 204.5 -115t70.5 -172q0 -126 -93 -201t-245 -75z" />
    <glyph glyph-name="Scedilla" unicode="&#x15e;" horiz-adv-x="1171" 
d="M1094 387q0 -166 -109 -272.5t-285 -132.5l-34 -86q78 -12 130 -55.5t52 -116.5q0 -90 -70.5 -140.5t-183.5 -50.5q-137 0 -229 57l57 129q64 -45 147 -45q96 0 99 60q3 35 -27.5 57t-72.5 29t-93 6l62 149q-257 18 -449 168l113 189q79 -68 180 -106t209 -38
q110 0 185 49.5t75 137.5q0 32 -10.5 59.5t-33 49.5t-47 39.5t-63 34t-70 28t-77.5 26.5q-416 136 -416 424q0 119 64.5 207.5t168.5 132t232 43.5q124 0 231.5 -33t221.5 -108l-105 -180q-169 108 -336 108q-98 0 -164.5 -41t-66.5 -116q0 -37 17 -68.5t41 -53t66 -43
t75 -34.5t86 -31q98 -31 170.5 -67.5t134 -87.5t93.5 -121t32 -156z" />
    <glyph glyph-name="scedilla" unicode="&#x15f;" horiz-adv-x="815" 
d="M754 256q0 -109 -72 -181t-193 -89l-36 -90q76 -11 124 -52.5t48 -111.5q0 -81 -65.5 -127.5t-168.5 -46.5q-125 0 -211 53l51 117q64 -41 138 -41q94 0 94 61q0 45 -52.5 63.5t-129.5 16.5l63 156q-151 12 -283 96l89 158q121 -76 249 -76q62 0 99 25.5t37 68.5
q0 16 -6 30.5t-21 27.5t-26.5 21.5t-38.5 20.5t-39.5 17t-45.5 18q-123 47 -190.5 112t-67.5 169q0 121 93 188.5t231 67.5q158 0 299 -82l-78 -150q-105 54 -203 54q-57 0 -93 -19t-36 -59q0 -41 41.5 -70t124.5 -59q134 -49 204.5 -115t70.5 -172z" />
    <glyph glyph-name="Scaron" unicode="&#x160;" horiz-adv-x="1171" 
d="M590 1518l-285 227l84 104l219 -141l221 141l86 -106l-288 -225h-37zM598 -27q-143 0 -275 44t-235 126l113 189q79 -68 180 -106t209 -38q110 0 185 49.5t75 137.5q0 32 -10.5 59.5t-33 49.5t-47 39.5t-63 34t-70 28t-77.5 26.5q-416 136 -416 424q0 119 64.5 207.5
t168.5 132t232 43.5q124 0 231.5 -33t221.5 -108l-105 -180q-169 108 -336 108q-98 0 -164.5 -41t-66.5 -116q0 -37 17 -68.5t41 -53t66 -43t75 -34.5t86 -31q98 -31 170.5 -67.5t134 -87.5t93.5 -121t32 -156q0 -127 -67 -222t-178.5 -143.5t-250.5 -48.5z" />
    <glyph glyph-name="scaron" unicode="&#x161;" horiz-adv-x="815" 
d="M397 1061l-256 221l78 98l195 -137l196 137l82 -100l-260 -219h-35zM416 -20q-199 0 -355 100l89 158q121 -76 249 -76q62 0 99 25.5t37 68.5q0 16 -6 30.5t-21 27.5t-26.5 21.5t-38.5 20.5t-39.5 17t-45.5 18q-123 47 -190.5 112t-67.5 169q0 121 93 188.5t231 67.5
q158 0 299 -82l-78 -150q-105 54 -203 54q-57 0 -93 -19t-36 -59q0 -41 41.5 -70t124.5 -59q134 -49 204.5 -115t70.5 -172q0 -126 -93 -201t-245 -75z" />
    <glyph glyph-name="uni0162" unicode="&#x162;" horiz-adv-x="1110" 
d="M676 0h-35l-45 -104q78 -10 132 -54t54 -116q0 -91 -72 -142t-186 -51q-138 0 -227 57l57 129q64 -45 148 -45q98 0 98 66q0 33 -30.5 53.5t-71 27t-90.5 5.5l69 174h-43v1169h-395v224h1030v-224h-393v-1169z" />
    <glyph glyph-name="uni0163" unicode="&#x163;" horiz-adv-x="763" 
d="M504 -102q77 -13 124.5 -54t47.5 -110q0 -83 -66 -129.5t-170 -46.5q-121 0 -211 55l54 115q58 -39 137 -39q92 0 92 61q0 80 -180 80l63 158q-93 19 -144.5 92t-51.5 199v444l-162 12v178h162l6 293h217v-293h283v-190h-283v-422q0 -64 26 -90.5t74 -26.5q81 0 154 47
l72 -168q-105 -65 -209 -79z" />
    <glyph glyph-name="Tcaron" unicode="&#x164;" horiz-adv-x="1110" 
d="M573 1518h-36l-285 227l84 104l219 -141l221 141l86 -106zM1069 1393v-224h-393v-1169h-242v1169h-395v224h1030z" />
    <glyph glyph-name="tcaron" unicode="&#x165;" horiz-adv-x="755" 
d="M530 1051q45 163 45 352h201q-18 -211 -102 -352h-144zM465 -20q-123 0 -194.5 75t-71.5 224v442l-162 12v180h162l6 293h219v-293h283v-192h-283v-420q0 -119 96 -119q76 3 144 49l73 -168q-132 -83 -272 -83z" />
    <glyph glyph-name="Tbar" unicode="&#x166;" horiz-adv-x="1110" 
d="M1069 1169h-393v-424h244v-167h-244v-578h-242v578h-244v167h244v424h-395v224h1030v-224z" />
    <glyph glyph-name="tbar" unicode="&#x167;" horiz-adv-x="755" 
d="M666 225l71 -162q-128 -83 -272 -83q-123 0 -194.5 75t-71.5 224v124h-93v132h93v198l-162 12v168h162l6 293h219v-293h283v-180h-283v-198h205v-132h-205v-110q0 -117 96 -117q70 0 146 49z" />
    <glyph glyph-name="Utilde" unicode="&#x168;" horiz-adv-x="1415" 
d="M520 1556l-131 76q35 92 82.5 138.5t114.5 46.5q58 0 139 -41q64 -29 90 -29q45 0 78 70l133 -72q-70 -182 -197 -182q-57 0 -120 32q-5 2 -18.5 8.5t-19.5 9t-17 7.5t-18 7t-16 3.5t-16 1.5q-25 0 -44.5 -17t-39.5 -59zM709 -27q-249 0 -404 138t-155 383v899h241v-883
q0 -156 85.5 -236.5t232.5 -80.5q145 0 230 80.5t85 236.5v883h242v-899q0 -163 -72.5 -282.5t-197.5 -179t-287 -59.5z" />
    <glyph glyph-name="utilde" unicode="&#x169;" horiz-adv-x="1071" 
d="M365 1106l-125 70q67 165 180 165q63 0 121 -32q68 -33 90 -33q39 0 67 63l125 -67q-65 -164 -178 -164q-54 0 -113 29q-66 34 -94 34q-46 0 -73 -65zM717 913h223v-913h-156l-45 141q-47 -75 -121 -117t-169 -42q-162 0 -246 96.5t-84 269.5v565h225v-544
q0 -187 160 -187q100 0 156.5 74t56.5 184v473z" />
    <glyph glyph-name="Umacron" unicode="&#x16a;" horiz-adv-x="1415" 
d="M416 1579v174h581v-174h-581zM709 -27q-249 0 -404 138t-155 383v899h241v-883q0 -156 85.5 -236.5t232.5 -80.5q145 0 230 80.5t85 236.5v883h242v-899q0 -163 -72.5 -282.5t-197.5 -179t-287 -59.5z" />
    <glyph glyph-name="umacron" unicode="&#x16b;" horiz-adv-x="1071" 
d="M258 1120v162h549v-162h-549zM717 913h223v-913h-156l-45 141q-47 -75 -121 -117t-169 -42q-162 0 -246 96.5t-84 269.5v565h225v-544q0 -187 160 -187q100 0 156.5 74t56.5 184v473z" />
    <glyph glyph-name="Ubreve" unicode="&#x16c;" horiz-adv-x="1415" 
d="M709 1520q-108 0 -189 60.5t-112 178.5l139 49q15 -56 60 -88t102 -32t101.5 32t59.5 88l140 -49q-31 -118 -112 -178.5t-189 -60.5zM709 -27q-249 0 -404 138t-155 383v899h241v-883q0 -156 85.5 -236.5t232.5 -80.5q145 0 230 80.5t85 236.5v883h242v-899
q0 -163 -72.5 -282.5t-197.5 -179t-287 -59.5z" />
    <glyph glyph-name="ubreve" unicode="&#x16d;" horiz-adv-x="1071" 
d="M530 1065q-99 0 -171.5 55.5t-102.5 167.5l127 55q15 -56 55 -87t92 -31q53 0 94 31.5t54 86.5l127 -55q-28 -111 -101.5 -167t-173.5 -56zM717 913h223v-913h-156l-45 139q-47 -74 -121.5 -115.5t-168.5 -41.5q-162 0 -246 96.5t-84 269.5v565h225v-544q0 -187 160 -187
q100 0 156.5 74t56.5 184v473z" />
    <glyph glyph-name="Uring" unicode="&#x16e;" horiz-adv-x="1415" 
d="M711 1479q-102 0 -172 60t-70 161q0 102 68.5 162.5t169.5 60.5q102 0 171.5 -60.5t69.5 -162.5q0 -101 -67.5 -161t-169.5 -60zM709 1604q43 0 70.5 26t27.5 72t-28 72t-70 26t-70.5 -26.5t-28.5 -71.5t28.5 -71.5t70.5 -26.5zM709 -27q-249 0 -404 138t-155 383v899
h241v-883q0 -156 85.5 -236.5t232.5 -80.5q145 0 230 80.5t85 236.5v883h242v-899q0 -163 -72.5 -282.5t-197.5 -179t-287 -59.5z" />
    <glyph glyph-name="uring" unicode="&#x16f;" horiz-adv-x="1071" 
d="M532 1026q-96 0 -162.5 56.5t-66.5 152.5q0 98 65 155.5t162 57.5q96 0 162 -57.5t66 -155.5q0 -96 -65 -152.5t-161 -56.5zM530 1143q40 0 66.5 25t26.5 69q0 43 -26.5 68.5t-66.5 25.5q-39 0 -65.5 -25.5t-26.5 -68.5q0 -44 26.5 -69t65.5 -25zM717 913h223v-913h-156
l-45 141q-47 -75 -121 -117t-169 -42q-162 0 -246 96.5t-84 269.5v565h225v-544q0 -187 160 -187q100 0 156.5 74t56.5 184v473z" />
    <glyph glyph-name="Uhungarumlaut" unicode="&#x170;" horiz-adv-x="1415" 
d="M520 1509l-125 78l193 309l160 -98zM858 1509l-125 84l209 303l156 -106zM709 -27q-249 0 -404 138t-155 383v899h241v-883q0 -156 85.5 -236.5t232.5 -80.5q145 0 230 80.5t85 236.5v883h242v-899q0 -163 -72.5 -282.5t-197.5 -179t-287 -59.5z" />
    <glyph glyph-name="uhungarumlaut" unicode="&#x171;" horiz-adv-x="1071" 
d="M352 1049l-123 75l191 303l153 -96zM684 1049l-121 81l205 297l154 -102zM717 913h223v-913h-156l-45 141q-47 -75 -121 -117t-169 -42q-162 0 -246 96.5t-84 269.5v565h225v-544q0 -187 160 -187q100 0 156.5 74t56.5 184v473z" />
    <glyph glyph-name="Uogonek" unicode="&#x172;" horiz-adv-x="1415" 
d="M1024 1393h242v-899q0 -138 -51.5 -244t-145.5 -172q-126 -111 -171.5 -179t-45.5 -122q0 -60 68 -60q42 0 86 29l49 -156q-85 -57 -197 -57q-108 0 -166.5 52t-58.5 139q0 116 119 251q-14 -2 -43 -2q-249 0 -404 138t-155 383v899h241v-883q0 -156 85.5 -236.5
t232.5 -80.5q145 0 230 80.5t85 236.5v883z" />
    <glyph glyph-name="uogonek" unicode="&#x173;" horiz-adv-x="1071" 
d="M932 -254l49 -137q-74 -53 -184 -53q-102 0 -155.5 51.5t-53.5 128.5q0 140 186 293l-35 112q-47 -75 -121 -117t-169 -42q-162 0 -246 96.5t-84 269.5v565h225v-544q0 -187 160 -187q100 0 156.5 74t56.5 184v473h223v-913q-160 -129 -160 -223q0 -60 66 -60q42 0 86 29
z" />
    <glyph glyph-name="Wcircumflex" unicode="&#x174;" horiz-adv-x="1976" 
d="M985 1653l-221 -142l-86 107l289 225h37l286 -227l-84 -105zM1694 1393h252v-7l-490 -1394h-72l-337 739q-47 111 -62 156q-21 -72 -57 -156l-338 -739h-72l-487 1394v7h254l243 -725q6 -19 19.5 -61t24 -77t18.5 -71q41 117 80 207l286 643h60l276 -615q62 -138 94 -233
q10 42 70 223z" />
    <glyph glyph-name="wcircumflex" unicode="&#x175;" horiz-adv-x="1382" 
d="M690 1188l-194 -137l-82 102l260 217h35l256 -219l-80 -100zM1122 913h236v-6l-342 -915h-70l-254 510l-256 -510h-67l-342 915v6h237l142 -405q20 -61 32 -111q26 67 51 113l179 358h47l178 -358q29 -54 53 -115q9 38 35 113z" />
    <glyph glyph-name="Ycircumflex" unicode="&#x176;" horiz-adv-x="1318" 
d="M659 1653l-221 -142l-86 107l289 225h37l287 -227l-84 -105zM1014 1393h274v-7l-508 -782v-604h-241v604l-508 782v7h274l250 -394q56 -91 107 -192q37 84 104 192z" />
    <glyph glyph-name="ycircumflex" unicode="&#x177;" horiz-adv-x="1001" 
d="M500 1188l-195 -137l-82 102l260 217h35l256 -219l-80 -100zM750 913h233v-6l-539 -1358h-237v5l203 469l-392 884v6h242l195 -467q37 -85 61 -176q17 64 55 176z" />
    <glyph glyph-name="Ydieresis" unicode="&#x178;" horiz-adv-x="1318" 
d="M457 1565q-57 0 -93 37t-36 90t35.5 92t93.5 39q56 0 92.5 -38.5t36.5 -90.5t-35.5 -90.5t-93.5 -38.5zM860 1565q-57 0 -93 38t-36 91q0 52 36.5 90.5t92.5 38.5t92.5 -38.5t36.5 -90.5q0 -53 -36 -91t-93 -38zM1014 1393h274v-7l-508 -782v-604h-241v604l-508 782v7
h274l250 -394q68 -110 107 -192q34 79 104 192z" />
    <glyph glyph-name="Zacute" unicode="&#x179;" horiz-adv-x="1181" 
d="M487 1528l-96 110l303 260l133 -153zM74 0v72l588 954q14 21 44 70t48 75q-51 -2 -152 -2h-493v224h993v-72l-600 -973q-53 -87 -80 -127q47 2 133 2h553v-223h-1034z" />
    <glyph glyph-name="zacute" unicode="&#x17a;" horiz-adv-x="856" 
d="M653 1276l-323 -209l-92 104l290 250zM526 193h265v-193h-723v63l340 560q31 55 61 100q-53 -2 -113 -2h-270v192h698v-63l-317 -524q-56 -93 -86 -136q86 3 145 3z" />
    <glyph glyph-name="Zdotaccent" unicode="&#x17b;" horiz-adv-x="1181" 
d="M598 1559q-60 0 -97.5 38.5t-37.5 94.5t37 96.5t98 40.5q62 0 99.5 -40.5t37.5 -98.5q0 -54 -38.5 -92.5t-98.5 -38.5zM74 0v72l588 954q14 21 44 70t48 75q-51 -2 -152 -2h-493v224h993v-72l-600 -973q-53 -87 -80 -127q47 2 133 2h553v-223h-1034z" />
    <glyph glyph-name="zdotaccent" unicode="&#x17c;" horiz-adv-x="856" 
d="M434 1098q-56 0 -93.5 37t-37.5 92q0 57 37 95t94 38q58 0 94.5 -37.5t36.5 -95.5q0 -55 -37.5 -92t-93.5 -37zM526 193h265v-193h-723v63l340 560q13 23 61 100q-51 -2 -113 -2h-270v192h698v-63l-317 -524q-56 -93 -86 -136q86 3 145 3z" />
    <glyph glyph-name="Zcaron" unicode="&#x17d;" horiz-adv-x="1181" 
d="M578 1518l-285 227l84 104l219 -141l221 141l86 -106l-289 -225h-36zM74 0v72l588 954q14 21 44 70t48 75q-51 -2 -152 -2h-493v224h993v-72l-600 -973q-53 -87 -80 -127q47 2 133 2h553v-223h-1034z" />
    <glyph glyph-name="zcaron" unicode="&#x17e;" horiz-adv-x="856" 
d="M451 1061h-35l-256 221l78 98l194 -137l197 137l82 -100zM526 193h265v-193h-723v63l340 560q31 55 61 100q-53 -2 -113 -2h-270v192h698v-63l-317 -524q-56 -93 -86 -136q86 3 145 3z" />
    <glyph glyph-name="florin" unicode="&#x192;" horiz-adv-x="1005" 
d="M815 1169q-139 0 -160 -184l-16 -166h244l-21 -209h-246l-59 -587q-20 -188 -119.5 -281.5t-253.5 -93.5q-140 0 -243 84l94 180q52 -43 125 -43q142 0 159 184l58 559l-227 6l18 201h231l21 197q18 180 119.5 277.5t253.5 97.5q138 0 241 -84l-92 -181q-55 43 -127 43z
" />
    <glyph glyph-name="AEacute" unicode="&#x1fc;" horiz-adv-x="1814" 
d="M1393 1745l-340 -217l-97 110l304 260zM1130 213h599v-213h-828v256h-479l-166 -256h-270v6l915 1387h809v-213h-580v-367h510v-205h-510v-395zM535 442h366v379v211q-23 -49 -86 -155z" />
    <glyph glyph-name="aeacute" unicode="&#x1fd;" horiz-adv-x="1527" 
d="M979 1276l-324 -209l-92 104l291 250zM1073 930q183 0 284 -122t101 -321q0 -47 -6 -96h-616q15 -114 86 -174.5t182 -60.5q127 0 227 84l92 -140q-148 -125 -340 -125q-242 0 -352 197q-62 -100 -150.5 -146t-213.5 -46q-131 0 -214 70t-83 194q0 81 38 142.5t104.5 97
t146.5 52.5t173 17q62 0 97 -4v49q0 141 -172 141q-67 0 -143.5 -21t-137.5 -52l-63 170q193 94 364 94q208 0 279 -144q103 144 317 144zM838 543h409q-2 97 -50 152t-136 55q-95 0 -151.5 -53.5t-71.5 -153.5zM416 152q92 0 154 65t63 186q-41 7 -96 7q-69 0 -121 -13
t-88.5 -47.5t-36.5 -89.5q0 -51 33 -79.5t92 -28.5z" />
    <glyph glyph-name="Oslashacute" unicode="&#x1fe;" horiz-adv-x="1638" 
d="M1051 1745l-340 -217l-97 110l304 260zM1300 1255q117 -98 180.5 -241.5t63.5 -315.5q0 -152 -53.5 -285.5t-147.5 -230.5t-230 -153t-294 -56q-190 0 -352 84l-113 -161l-125 88l113 157q-118 101 -183 245.5t-65 311.5q0 155 54 289t148.5 229t230 149t292.5 54
q199 0 357 -82l137 201l125 -86zM819 1204q-216 0 -346.5 -141.5t-130.5 -364.5q0 -225 137 -368l574 821q-103 53 -234 53zM819 190q215 0 347 145.5t132 362.5q0 231 -137 371l-571 -823q106 -56 229 -56z" />
    <glyph glyph-name="oslashacute" unicode="&#x1ff;" horiz-adv-x="1128" 
d="M784 1276l-323 -209l-92 104l290 250zM881 834q83 -64 128.5 -161t45.5 -216q0 -212 -138.5 -348t-353.5 -136q-130 0 -235 54l-76 -109l-82 55l74 107q-81 65 -125.5 162.5t-44.5 214.5q0 212 137 346.5t352 134.5q129 0 234 -51l77 112l82 -55zM563 743
q-120 0 -193 -79t-73 -207q0 -123 72 -205l313 467q-53 24 -119 24zM563 170q120 0 193 79.5t73 207.5q0 123 -69 205l-318 -465q59 -27 121 -27z" />
    <glyph glyph-name="uni0218" unicode="&#x218;" horiz-adv-x="1171" 
d="M598 -27q-143 0 -275 44t-235 126l113 189q79 -68 180 -106t209 -38q110 0 185 49.5t75 137.5q0 32 -10.5 59.5t-33 49.5t-47 39.5t-63 34t-70 28t-77.5 26.5q-416 136 -416 424q0 119 64.5 207.5t168.5 132t232 43.5q124 0 231.5 -33t221.5 -108l-105 -180
q-169 108 -336 108q-98 0 -164.5 -41t-66.5 -116q0 -37 17 -68.5t41 -53t66 -43t75 -34.5t86 -31q98 -31 170.5 -67.5t134 -87.5t93.5 -121t32 -156q0 -127 -67 -222t-178.5 -143.5t-250.5 -48.5zM449 -588q55 185 55 393h211q-17 -228 -117 -393h-149z" />
    <glyph glyph-name="uni0219" unicode="&#x219;" horiz-adv-x="815" 
d="M416 -20q-199 0 -355 100l89 158q121 -76 249 -76q62 0 99 25.5t37 68.5q0 16 -6 30.5t-21 27.5t-26.5 21.5t-38.5 20.5t-39.5 17t-45.5 18q-123 47 -190.5 112t-67.5 169q0 121 93 188.5t231 67.5q158 0 299 -82l-78 -150q-105 54 -203 54q-57 0 -93 -19t-36 -59
q0 -41 41.5 -70t124.5 -59q134 -49 204.5 -115t70.5 -172q0 -126 -93 -201t-245 -75zM264 -571q55 177 55 385h205q-17 -230 -112 -385h-148z" />
    <glyph glyph-name="uni021A" unicode="&#x21a;" horiz-adv-x="1110" 
d="M1069 1393v-224h-393v-1169h-242v1169h-395v224h1030zM397 -588q56 188 56 393h211q-17 -228 -117 -393h-150z" />
    <glyph glyph-name="uni021B" unicode="&#x21b;" horiz-adv-x="763" 
d="M471 -20q-127 0 -199.5 75t-72.5 224v444l-162 12v178h162l6 293h217v-293h283v-190h-283v-422q0 -64 26 -90.5t74 -26.5q81 0 154 47l72 -168q-132 -83 -277 -83zM311 -569q56 180 56 385h204q-17 -230 -112 -385h-148z" />
    <glyph glyph-name="uni0237" unicode="&#x237;" horiz-adv-x="493" 
d="M-66 -475l-28 190q72 5 118 23.5t71 54t34.5 81.5t9.5 116v923h223v-923q0 -116 -21 -197.5t-70.5 -140.5t-132 -90t-204.5 -37z" />
    <glyph glyph-name="circumflex" unicode="&#x2c6;" horiz-adv-x="800" 
d="M211 1051l-82 102l260 217h35l256 -219l-80 -100l-194 137z" />
    <glyph glyph-name="caron" unicode="&#x2c7;" horiz-adv-x="802" 
d="M387 1061l-256 221l78 98l194 -137l197 137l82 -100l-260 -219h-35z" />
    <glyph glyph-name="breve" unicode="&#x2d8;" horiz-adv-x="794" 
d="M397 1065q-99 0 -171.5 55.5t-102.5 167.5l127 55q15 -56 55 -87t92 -31q53 0 94 31.5t54 86.5l127 -55q-28 -111 -101.5 -167t-173.5 -56z" />
    <glyph glyph-name="dotaccent" unicode="&#x2d9;" horiz-adv-x="479" 
d="M238 1098q-57 0 -94.5 37.5t-37.5 91.5q0 57 37.5 95t94.5 38q58 0 94.5 -37.5t36.5 -95.5q0 -55 -37.5 -92t-93.5 -37z" />
    <glyph glyph-name="ring" unicode="&#x2da;" horiz-adv-x="647" 
d="M328 1026q-97 0 -163.5 56.5t-66.5 152.5q0 98 65.5 155.5t162.5 57.5q96 0 161.5 -57.5t65.5 -155.5q0 -97 -64.5 -153t-160.5 -56zM326 1143q40 0 66 25t26 69q0 43 -26.5 68.5t-65.5 25.5q-40 0 -66.5 -25.5t-26.5 -68.5q0 -44 27 -69t66 -25z" />
    <glyph glyph-name="ogonek" unicode="&#x2db;" horiz-adv-x="548" 
d="M291 -444q-102 0 -155.5 51.5t-53.5 128.5q0 158 233 330l119 -66q-160 -129 -160 -223q0 -60 66 -60q42 0 86 29l49 -137q-74 -53 -184 -53z" />
    <glyph glyph-name="tilde" unicode="&#x2dc;" horiz-adv-x="835" 
d="M252 1106l-125 70q67 165 180 165q63 0 121 -32q68 -33 90 -33q40 0 68 63l125 -67q-65 -164 -179 -164q-53 0 -112 29q-66 34 -94 34q-47 0 -74 -65z" />
    <glyph glyph-name="hungarumlaut" unicode="&#x2dd;" horiz-adv-x="860" 
d="M219 1049l-123 75l191 303l153 -96zM551 1049l-121 81l205 297l153 -102z" />
    <glyph glyph-name="gravecomb" unicode="&#x300;" 
d="M-184 1067l-328 207l127 147l293 -250z" />
    <glyph glyph-name="acutecomb" unicode="&#x301;" 
d="M-432 1067l-92 104l291 250l124 -145z" />
    <glyph glyph-name="uni0302" unicode="&#x302;" 
d="M-594 1051l-82 102l260 217h35l256 -219l-80 -100l-194 137z" />
    <glyph glyph-name="tildecomb" unicode="&#x303;" 
d="M-588 1106l-125 70q67 165 181 165q62 0 120 -32q68 -33 90 -33q40 0 68 63l125 -67q-65 -164 -178 -164q-54 0 -113 29q-66 34 -94 34q-47 0 -74 -65z" />
    <glyph glyph-name="uni0304" unicode="&#x304;" 
d="M-680 1120v162h549v-162h-549z" />
    <glyph glyph-name="uni0306" unicode="&#x306;" 
d="M-401 1065q-99 0 -172 56t-103 167l127 55q15 -56 55.5 -87t92.5 -31q53 0 93.5 31.5t53.5 86.5l127 -55q-28 -111 -101 -167t-173 -56z" />
    <glyph glyph-name="uni0307" unicode="&#x307;" 
d="M-244 1098q-56 0 -93.5 37t-37.5 92q0 57 37 95t94 38q58 0 94.5 -37.5t36.5 -95.5q0 -55 -37.5 -92t-93.5 -37z" />
    <glyph glyph-name="uni0308" unicode="&#x308;" 
d="M-606 1112q-53 0 -87 35t-34 84q0 48 33.5 84.5t87.5 36.5q52 0 86.5 -36t34.5 -83q0 -48 -34 -84.5t-87 -36.5zM-254 1112q-54 0 -88.5 35.5t-34.5 83.5t35 84.5t88 36.5t87 -36.5t34 -84.5q0 -47 -34.5 -83t-86.5 -36z" />
    <glyph glyph-name="uni030A" unicode="&#x30a;" 
d="M-322 1026q-96 0 -162.5 56.5t-66.5 152.5q0 98 65 155.5t162 57.5q96 0 162 -57.5t66 -155.5q0 -96 -65 -152.5t-161 -56.5zM-324 1143q40 0 66.5 25t26.5 69q0 43 -26.5 68.5t-66.5 25.5q-39 0 -65.5 -25.5t-26.5 -68.5q0 -44 26.5 -69t65.5 -25z" />
    <glyph glyph-name="uni030B" unicode="&#x30b;" 
d="M-643 1049l-123 75l191 303l153 -96zM-311 1049l-121 81l205 297l153 -102z" />
    <glyph glyph-name="uni030C" unicode="&#x30c;" 
d="M-420 1061l-256 221l78 98l195 -137l196 137l82 -100l-260 -219h-35z" />
    <glyph glyph-name="uni0312" unicode="&#x312;" 
d="M-362 1085q17 226 114 385h146q-54 -178 -54 -385h-206z" />
    <glyph glyph-name="uni0326" unicode="&#x326;" 
d="M-362 -571q55 177 55 385h205q-17 -228 -113 -385h-147z" />
    <glyph glyph-name="uni0327" unicode="&#x327;" 
d="M-344 -442q-125 0 -211 53l51 117q64 -41 137 -41q95 0 95 61q0 45 -53 63.5t-130 16.5l72 176h145l-45 -108q76 -11 124 -52.5t48 -111.5q0 -81 -65 -127.5t-168 -46.5z" />
    <glyph glyph-name="uni0328" unicode="&#x328;" 
d="M-260 -444q-102 0 -155.5 51.5t-53.5 128.5q0 158 233 330l119 -66q-159 -128 -159 -223q0 -60 65 -60q43 0 86 29l49 -137q-74 -53 -184 -53z" />
    <glyph glyph-name="pi" unicode="&#x3c0;" horiz-adv-x="1216" 
d="M209 -4v725h-162v192h1129v-192h-162v-725h-217v725h-369v-725h-219z" />
    <glyph glyph-name="uni0400" unicode="&#x400;" horiz-adv-x="1148" 
d="M700 1528l-342 215l136 155l303 -260zM412 213h653v-213h-895v1393h877v-213h-635v-369h555v-207h-555v-391z" />
    <glyph glyph-name="uni0401" unicode="&#x401;" horiz-adv-x="1148" 
d="M412 1565q-57 0 -93 37t-36 90t35.5 92t93.5 39q56 0 92.5 -38.5t36.5 -90.5t-35.5 -90.5t-93.5 -38.5zM815 1565q-57 0 -93 38t-36 91q0 52 36.5 90.5t92.5 38.5t92.5 -38.5t36.5 -90.5q0 -53 -36 -91t-93 -38zM412 213h653v-213h-895v1393h877v-213h-635v-369h555v-207
h-555v-391z" />
    <glyph glyph-name="uni0402" unicode="&#x402;" horiz-adv-x="1411" 
d="M895 862q203 0 315.5 -111.5t112.5 -320.5q0 -71 -23 -142t-67 -135.5t-118 -112.5t-167 -65l-43 201q178 55 178 262q0 111 -53.5 166t-165.5 55q-115 0 -209 -38v-621h-241v1169h-375v224h1051v-224h-435v-346q112 39 240 39z" />
    <glyph glyph-name="uni0403" unicode="&#x403;" horiz-adv-x="1081" 
d="M520 1528l-96 110l303 260l133 -153zM170 0v1393h874v-224h-632v-1169h-242z" />
    <glyph glyph-name="uni0404" unicode="&#x404;" horiz-adv-x="1419" 
d="M1235 381l141 -164q-120 -117 -255 -179.5t-310 -62.5q-156 0 -291 57.5t-228 155t-145.5 230t-52.5 280.5q0 206 92 370.5t256.5 256.5t370.5 92q165 0 288 -50t240 -155l-129 -161q-88 77 -176 112t-207 35q-193 0 -322.5 -108.5t-160.5 -288.5h565v-209h-563
q31 -176 157.5 -286.5t305.5 -110.5q247 0 424 186z" />
    <glyph glyph-name="uni0405" unicode="&#x405;" horiz-adv-x="1171" 
d="M598 -27q-143 0 -275 44t-235 126l113 189q79 -68 180 -106t209 -38q110 0 185 49.5t75 137.5q0 32 -10.5 59.5t-33 49.5t-47 39.5t-63 34t-70 28t-77.5 26.5q-416 136 -416 424q0 119 64.5 207.5t168.5 132t232 43.5q124 0 231.5 -33t221.5 -108l-105 -180
q-169 108 -336 108q-98 0 -164.5 -41t-66.5 -116q0 -37 17 -68.5t41 -53t66 -43t75 -34.5t86 -31q98 -31 170.5 -67.5t134 -87.5t93.5 -121t32 -156q0 -127 -67 -222t-178.5 -143.5t-250.5 -48.5z" />
    <glyph glyph-name="uni0406" unicode="&#x406;" horiz-adv-x="581" 
d="M170 0v1393h242v-1393h-242z" />
    <glyph glyph-name="uni0407" unicode="&#x407;" horiz-adv-x="581" 
d="M88 1548q-56 0 -92.5 36.5t-36.5 88.5q0 53 35.5 92t93.5 39q57 0 93 -38t36 -89q0 -53 -35.5 -91t-93.5 -38zM492 1548q-57 0 -93.5 38t-36.5 89q0 52 36.5 90.5t93.5 38.5q58 0 93.5 -38.5t35.5 -90.5q0 -51 -36 -89t-93 -38zM170 0v1393h242v-1393h-242z" />
    <glyph glyph-name="uni0408" unicode="&#x408;" horiz-adv-x="1019" 
d="M412 -27q-227 0 -398 129l113 185q126 -99 268 -99q234 0 234 263v942h241v-942q0 -235 -117 -356.5t-341 -121.5z" />
    <glyph glyph-name="uni0409" unicode="&#x409;" horiz-adv-x="2011" 
d="M1503 860q193 0 323 -121.5t130 -308.5t-130 -308.5t-323 -121.5h-516v1169h-366l-60 -536q-39 -343 -166 -494.5t-352 -154.5l-27 204q142 4 212.5 134t103.5 426l74 645h823v-533h274zM1479 209q105 0 170 59.5t65 161.5t-65 161.5t-170 59.5h-250v-442h250z" />
    <glyph glyph-name="uni040A" unicode="&#x40a;" horiz-adv-x="2023" 
d="M1516 838q197 0 325.5 -119.5t128.5 -300.5t-128.5 -299.5t-325.5 -118.5h-517v623h-587v-623h-242v1393h242v-555h587v555h244v-555h273zM1491 209q103 0 170.5 60t67.5 149q0 90 -67.5 150.5t-170.5 60.5h-248v-420h248z" />
    <glyph glyph-name="uni040B" unicode="&#x40b;" horiz-adv-x="1433" 
d="M918 864q179 0 286 -102t107 -275v-487h-242v477q0 81 -52.5 128.5t-148.5 47.5q-110 0 -213 -39v-614h-241v1169h-375v224h1051v-224h-435v-344q119 39 263 39z" />
    <glyph glyph-name="uni040C" unicode="&#x40c;" horiz-adv-x="1241" 
d="M948 1745l-340 -217l-96 110l303 260zM637 702l592 -694v-8h-285l-532 623v-623h-242v1393h242v-625l499 625h275v-7z" />
    <glyph glyph-name="uni040D" unicode="&#x40d;" horiz-adv-x="1533" 
d="M997 1638l-96 -110l-342 215l135 155zM1292 1401h72v-1401h-242v750q0 96 6 198q-62 -72 -159 -176l-727 -780h-72v1401h242v-750q0 -98 -6 -197q97 116 161 183z" />
    <glyph glyph-name="uni040E" unicode="&#x40e;" horiz-adv-x="1286" 
d="M649 1513q-118 0 -207.5 52t-142.5 149l139 94q77 -116 211 -116q138 0 215 116l135 -94q-50 -97 -140 -149t-210 -52zM1022 1393h256l-440 -955q-62 -132 -115 -211t-124 -134t-157 -78t-213 -29l-20 209q136 4 215.5 43t134.5 124l-549 1031h262l408 -779z" />
    <glyph glyph-name="uni040F" unicode="&#x40f;" horiz-adv-x="1447" 
d="M1278 1393v-1393h-440v-311h-228v311h-440v1393h242v-1170h624v1170h242z" />
    <glyph glyph-name="uni0410" unicode="&#x410;" horiz-adv-x="1406" 
d="M741 1401l656 -1395v-6h-252l-115 252h-651l-115 -252h-254v4l658 1397h73zM705 1012q-45 -124 -95 -238l-151 -332h491l-151 332q-38 85 -94 238z" />
    <glyph glyph-name="uni0411" unicode="&#x411;" horiz-adv-x="1273" 
d="M170 0v1393h907v-215h-665v-336h317q107 0 197 -35t148.5 -93t91 -133.5t32.5 -158.5q0 -84 -32.5 -160t-91 -134.5t-148.5 -93t-197 -34.5h-559zM412 203h290q119 0 186.5 58t67.5 161q0 101 -68 160t-186 59h-290v-438z" />
    <glyph glyph-name="uni0412" unicode="&#x412;" horiz-adv-x="1288" 
d="M979 729q102 -45 161.5 -135.5t59.5 -208.5q0 -172 -121.5 -278.5t-314.5 -106.5h-594v1393h555q184 0 302 -101.5t118 -263.5q0 -97 -44 -173.5t-122 -125.5zM410 1194v-379h278q102 0 157.5 51t55.5 144q0 85 -59.5 134.5t-157.5 49.5h-274zM725 199q104 0 167.5 57
t63.5 154q0 95 -61.5 151.5t-161.5 56.5h-323v-419h315z" />
    <glyph glyph-name="uni0413" unicode="&#x413;" horiz-adv-x="1081" 
d="M170 0v1393h874v-224h-632v-1169h-242z" />
    <glyph glyph-name="uni0414" unicode="&#x414;" horiz-adv-x="1452" 
d="M1241 223h170v-534h-229v311h-944v-311h-228v534h162q108 208 133 479l72 691h864v-1170zM539 657q-25 -230 -111 -434h576v946h-410z" />
    <glyph glyph-name="uni0415" unicode="&#x415;" horiz-adv-x="1148" 
d="M412 213h653v-213h-895v1393h877v-213h-635v-369h555v-207h-555v-391z" />
    <glyph glyph-name="uni0416" unicode="&#x416;" horiz-adv-x="1787" 
d="M1227 705l549 -697v-8h-283l-477 621v-621h-242v621l-479 -621h-283v8l551 697l-526 681l2 7h274l461 -621v621h242v-619l461 619h272v-9z" />
    <glyph glyph-name="uni0417" unicode="&#x417;" horiz-adv-x="1159" 
d="M575 -23q-321 0 -524 189l113 172q163 -145 397 -145q113 0 189.5 60t76.5 159q0 98 -69 152t-185 54h-186v199h178q93 0 146 53t53 138q0 90 -67 141t-179 51q-171 0 -313 -113l-105 168q201 162 441 162q200 0 333.5 -109.5t133.5 -273.5q0 -101 -53.5 -182.5
t-135.5 -116.5q117 -42 183.5 -132t66.5 -214q0 -173 -137.5 -292.5t-356.5 -119.5z" />
    <glyph glyph-name="uni0418" unicode="&#x418;" horiz-adv-x="1533" 
d="M1292 1401h72v-1401h-242v750q0 96 6 198q-62 -72 -159 -176l-727 -780h-72v1401h242v-750q0 -98 -6 -197q97 116 161 183z" />
    <glyph glyph-name="uni0419" unicode="&#x419;" horiz-adv-x="1533" 
d="M811 1513q-118 0 -207.5 52t-142.5 149l139 94q77 -116 211 -116q138 0 215 116l135 -94q-50 -97 -140 -149t-210 -52zM1292 1401h72v-1401h-242v750q0 96 6 198q-62 -72 -159 -176l-727 -780h-72v1401h242v-750q0 -98 -6 -197q97 116 161 183z" />
    <glyph glyph-name="uni041A" unicode="&#x41a;" horiz-adv-x="1241" 
d="M637 702l592 -694v-8h-285l-532 623v-623h-242v1393h242v-625l499 625h275v-7z" />
    <glyph glyph-name="uni041B" unicode="&#x41b;" horiz-adv-x="1452" 
d="M49 -16l-33 202q151 12 217 126t99 401l76 680h874v-1393h-242v1169h-424l-59 -534q-39 -343 -158.5 -491t-349.5 -160z" />
    <glyph glyph-name="uni041C" unicode="&#x41c;" horiz-adv-x="1748" 
d="M1458 1403l205 -1403h-238l-110 754q-16 134 -17 141q-34 -62 -81 -131l-318 -483h-49l-315 483q-42 58 -86 135q0 -12 -17 -147l-106 -752h-238l205 1403h72l419 -643q35 -53 90 -146q46 78 91 146l421 643h72z" />
    <glyph glyph-name="uni041D" unicode="&#x41d;" horiz-adv-x="1501" 
d="M170 0v1393h242v-580h678v580h241v-1393h-241v590h-678v-590h-242z" />
    <glyph glyph-name="uni041E" unicode="&#x41e;" horiz-adv-x="1638" 
d="M819 -27q-209 0 -375.5 96t-258 261.5t-91.5 367.5q0 155 54 289t148.5 229t230 149t292.5 54q212 0 377.5 -92.5t256.5 -257t91 -371.5q0 -152 -53.5 -285.5t-147.5 -230.5t-230 -153t-294 -56zM819 193q143 0 253 68t168 182t58 255q0 220 -131 361t-348 141
q-215 0 -346 -141t-131 -361q0 -105 34 -197.5t95 -160.5t151 -107.5t197 -39.5z" />
    <glyph glyph-name="uni041F" unicode="&#x41f;" horiz-adv-x="1452" 
d="M170 0v1393h1114v-1393h-244v1169h-628v-1169h-242z" />
    <glyph glyph-name="uni0420" unicode="&#x420;" horiz-adv-x="1224" 
d="M170 0v1393h535q108 0 198 -38t147.5 -101t89 -143t31.5 -167q0 -86 -31 -164t-88.5 -139t-148.5 -97t-203 -36h-288v-508h-242zM412 715h262q124 0 189 67t65 164q0 101 -67.5 168.5t-180.5 67.5h-268v-467z" />
    <glyph glyph-name="uni0421" unicode="&#x421;" horiz-adv-x="1417" 
d="M811 -27q-158 0 -293 57t-227.5 155t-144.5 231t-52 282q0 155 54 289t149 229t229.5 149t290.5 54q157 0 281.5 -49t242.5 -156l-124 -163q-162 149 -394 149q-213 0 -347 -140.5t-134 -361.5q0 -217 132 -361t341 -144q257 0 406 196l151 -156q-211 -260 -561 -260z
" />
    <glyph glyph-name="uni0422" unicode="&#x422;" horiz-adv-x="1110" 
d="M1069 1393v-224h-393v-1169h-242v1169h-395v224h1030z" />
    <glyph glyph-name="uni0423" unicode="&#x423;" horiz-adv-x="1286" 
d="M1022 1393h256l-440 -955q-62 -132 -115 -211t-124 -134t-157 -78t-213 -29l-20 209q136 4 215.5 43t134.5 124l-549 1031h262l408 -779z" />
    <glyph glyph-name="uni0424" unicode="&#x424;" horiz-adv-x="1705" 
d="M1630 717q0 -253 -174 -420.5t-487 -196.5v-215h-232v215q-313 29 -488 197t-175 420q0 253 175 420t488 196v215h232v-215q314 -29 487.5 -195.5t173.5 -420.5zM315 717q0 -166 110.5 -272.5t317.5 -129.5v805q-207 -23 -317.5 -130t-110.5 -273zM963 315
q207 23 316.5 129.5t109.5 272.5t-109.5 273t-316.5 130v-805z" />
    <glyph glyph-name="uni0425" unicode="&#x425;" horiz-adv-x="1316" 
d="M23 0v4l491 717l-451 668v4h279l195 -295q69 -103 125 -201q66 116 124 205l191 291h276v-4l-448 -668l489 -717v-4h-280l-232 348q-71 105 -123 197q-71 -125 -122 -197l-234 -348h-280z" />
    <glyph glyph-name="uni0426" unicode="&#x426;" horiz-adv-x="1497" 
d="M1278 223h178v-534h-227v311h-1059v1393h242v-1170h624v1170h242v-1170z" />
    <glyph glyph-name="uni0427" unicode="&#x427;" horiz-adv-x="1331" 
d="M920 1393h241v-1393h-241v526q-151 -53 -324 -53q-231 0 -362.5 114.5t-131.5 346.5v459h242v-435q0 -144 70 -205t209 -61q152 0 297 66v635z" />
    <glyph glyph-name="uni0428" unicode="&#x428;" horiz-adv-x="2064" 
d="M1653 1393h241v-1393h-1724v1393h242v-1170h501v1170h238v-1170h502v1170z" />
    <glyph glyph-name="uni0429" unicode="&#x429;" horiz-adv-x="2115" 
d="M1894 223h179v-534h-228v311h-1675v1393h242v-1170h501v1170h238v-1170h502v1170h241v-1170z" />
    <glyph glyph-name="uni042A" unicode="&#x42a;" horiz-adv-x="1464" 
d="M956 860q194 0 324.5 -121.5t130.5 -308.5t-130.5 -308.5t-324.5 -121.5h-563v1169h-354v224h596v-533h321zM934 209q105 0 170 59.5t65 161.5t-65 161.5t-170 59.5h-299v-442h299z" />
    <glyph glyph-name="uni042B" unicode="&#x42b;" horiz-adv-x="1814" 
d="M170 0v1393h242v-533h321q193 0 324 -121.5t131 -308.5t-131 -308.5t-324 -121.5h-563zM1403 0v1393h242v-1393h-242zM412 209h297q105 0 171 59.5t66 161.5t-66 161.5t-171 59.5h-297v-442z" />
    <glyph glyph-name="uni042C" unicode="&#x42c;" horiz-adv-x="1241" 
d="M733 860q193 0 324 -121.5t131 -308.5t-131 -308.5t-324 -121.5h-563v1393h242v-533h321zM709 209q105 0 171 59.5t66 161.5t-66 161.5t-171 59.5h-297v-442h297z" />
    <glyph glyph-name="uni042D" unicode="&#x42d;" horiz-adv-x="1421" 
d="M610 1417q205 0 369 -92t256 -256.5t92 -370.5q0 -198 -89 -362.5t-254 -262.5t-374 -98q-175 0 -310 62.5t-253 179.5l139 164q177 -186 416 -186q187 0 314.5 110t158.5 287h-586v209h588q-31 180 -159 288.5t-318 108.5q-122 0 -211.5 -35t-179.5 -110l-125 161
q220 203 526 203z" />
    <glyph glyph-name="uni042E" unicode="&#x42e;" horiz-adv-x="2144" 
d="M1331 1417q156 0 289.5 -54t227.5 -148.5t147 -228t53 -288.5q0 -202 -90.5 -366.5t-255 -260.5t-371.5 -96q-140 0 -264 46.5t-215.5 128.5t-151 195t-77.5 243h-211v-588h-242v1393h242v-582h211q35 270 229.5 438t478.5 168zM1331 195q140 0 248.5 67.5t165.5 181.5
t57 254q0 218 -129.5 359t-341.5 141q-211 0 -341 -141t-130 -359q0 -139 57.5 -253.5t166 -182t247.5 -67.5z" />
    <glyph glyph-name="uni042F" unicode="&#x42f;" horiz-adv-x="1298" 
d="M569 1393h559v-1393h-241v535h-240l-340 -535h-268v8l358 549q-143 41 -222 152.5t-79 251.5q0 186 128 309t345 123zM887 731v453h-295q-117 0 -185.5 -62t-68.5 -164q0 -104 68 -165.5t186 -61.5h295z" />
    <glyph glyph-name="uni0430" unicode="&#x430;" horiz-adv-x="991" 
d="M496 930q177 0 276.5 -88t99.5 -252v-590h-149l-41 137q-110 -155 -326 -155q-128 0 -207 68.5t-79 187.5q0 154 124.5 238.5t337.5 84.5q49 0 115 -4v41q0 70 -48.5 105.5t-137.5 35.5q-133 0 -285 -73l-63 170q208 94 383 94zM422 150q100 0 164 70t67 192
q-56 6 -106 6q-122 0 -189 -41.5t-67 -116.5q0 -53 34.5 -81.5t96.5 -28.5z" />
    <glyph glyph-name="uni0431" unicode="&#x431;" horiz-adv-x="1150" 
d="M653 915q181 0 303.5 -122.5t122.5 -335.5q0 -226 -136 -353t-349 -127q-227 0 -359.5 151.5t-132.5 432.5v107q0 114 27 222.5t91 210.5t157 165q70 48 148.5 80t136.5 46t128 39t123 58l74 -199q-59 -38 -128.5 -64.5t-122 -39t-117 -36.5t-117.5 -58
q-78 -47 -127 -135t-62 -207q130 165 340 165zM594 172q122 0 190 78.5t68 200.5q0 116 -69 193t-187 77q-111 0 -182.5 -78t-71.5 -199q0 -125 71 -198.5t181 -73.5z" />
    <glyph glyph-name="uni0432" unicode="&#x432;" horiz-adv-x="985" 
d="M762 469q71 -24 111 -79t40 -136q0 -120 -81.5 -187t-217.5 -67h-483v913h449q132 0 212 -65.5t80 -177.5q0 -138 -110 -201zM535 752h-187v-213h187q62 0 93 31t31 79q0 45 -31 74t-93 29zM559 162q65 0 98 29.5t33 80.5q0 52 -33 82.5t-98 30.5h-211v-223h211z" />
    <glyph glyph-name="uni0433" unicode="&#x433;" horiz-adv-x="794" 
d="M131 0v913h621v-192h-396v-721h-225z" />
    <glyph glyph-name="uni0434" unicode="&#x434;" horiz-adv-x="1103" 
d="M936 188h127v-421h-205v233h-622v-233h-205v421h114q65 101 80 281l41 444h670v-725zM463 727l-29 -295q-14 -159 -59 -248h346v543h-258z" />
    <glyph glyph-name="uni0435" unicode="&#x435;" horiz-adv-x="1028" 
d="M545 938q193 0 304.5 -121.5t111.5 -327.5q0 -23 -9 -106h-655q21 -108 99.5 -166.5t191.5 -58.5q142 0 241 86l95 -144q-157 -127 -357 -127q-219 0 -356 135t-137 351q0 203 133 341t338 138zM541 756q-92 0 -158 -58.5t-84 -162.5h451q-4 106 -61.5 163.5t-147.5 57.5
z" />
    <glyph glyph-name="uni0436" unicode="&#x436;" horiz-adv-x="1349" 
d="M981 473l354 -461v-12h-248l-301 406v-406h-223v406l-303 -406h-246v12l353 459l-320 432v10h248l268 -383v383h223v-381l267 381h250v-10z" />
    <glyph glyph-name="uni0437" unicode="&#x437;" horiz-adv-x="856" 
d="M412 -20q-210 0 -369 98l78 162q119 -78 266 -78q87 0 129.5 32t42.5 85q0 48 -34.5 77t-104.5 29h-176v166h157q56 0 86.5 26t30.5 70q0 42 -37.5 70t-109.5 28q-102 0 -219 -57l-66 160q158 82 320 82q144 0 238.5 -69t94.5 -189q0 -63 -32.5 -115.5t-88.5 -73.5
q81 -24 123.5 -83.5t42.5 -139.5q0 -127 -101 -203.5t-271 -76.5z" />
    <glyph glyph-name="uni0438" unicode="&#x438;" horiz-adv-x="1073" 
d="M856 913h86v-913h-221v418q0 69 4 106q-36 -44 -82 -90l-426 -436h-86v915h221v-409q0 -76 -4 -113q39 47 92 103z" />
    <glyph glyph-name="uni0439" unicode="&#x439;" horiz-adv-x="1073" 
d="M547 1073q-99 0 -177 46t-122 130l121 90q31 -52 78.5 -79t99.5 -27q51 0 98 27t78 79l123 -88q-44 -85 -122.5 -131.5t-176.5 -46.5zM856 913h86v-913h-221v418q0 69 4 106q-36 -44 -82 -90l-426 -436h-86v915h221v-409q0 -76 -4 -113q39 47 92 103z" />
    <glyph glyph-name="uni043A" unicode="&#x43a;" horiz-adv-x="952" 
d="M547 471l393 -461v-10h-256l-330 389v-389h-223v913h223v-362l301 362h254v-8z" />
    <glyph glyph-name="uni043B" unicode="&#x43b;" horiz-adv-x="1064" 
d="M39 -14l-25 194q113 12 158.5 76.5t58.5 206.5l39 450h664v-913h-223v721h-244l-21 -272q-20 -238 -112 -344t-295 -119z" />
    <glyph glyph-name="uni043C" unicode="&#x43c;" horiz-adv-x="1261" 
d="M1085 913l84 -913h-221l-35 408q-6 99 -6 100q-34 -44 -82 -102l-170 -211h-47l-164 200q-14 19 -44 57t-44 58q0 -2 -6 -113l-37 -397h-219l84 913h70l315 -374q48 -56 70 -86q20 30 67 86l316 374h69z" />
    <glyph glyph-name="uni043D" unicode="&#x43d;" horiz-adv-x="1079" 
d="M723 913h225v-913h-225v365h-369v-365h-223v913h223v-356h369v356z" />
    <glyph glyph-name="uni043E" unicode="&#x43e;" horiz-adv-x="1128" 
d="M563 -27q-215 0 -352 136t-137 348t137 346.5t352 134.5q216 0 354 -134.5t138 -346.5t-138.5 -348t-353.5 -136zM563 172q118 0 191 79.5t73 205.5t-73 205t-191 79q-117 0 -190.5 -79t-73.5 -205t73.5 -205.5t190.5 -79.5z" />
    <glyph glyph-name="uni043F" unicode="&#x43f;" horiz-adv-x="1077" 
d="M131 0v913h815v-913h-223v719h-369v-719h-223z" />
    <glyph glyph-name="uni0440" unicode="&#x440;" horiz-adv-x="1171" 
d="M657 936q189 0 313 -135t124 -340q0 -213 -123 -348.5t-314 -135.5q-187 0 -307 127q4 -63 4 -217v-338h-223v1364h152l43 -139q123 162 331 162zM610 172q115 0 185.5 79t70.5 204q0 128 -70.5 206t-185.5 78q-119 0 -191.5 -77t-72.5 -203q0 -129 73.5 -208t190.5 -79z
" />
    <glyph glyph-name="uni0441" unicode="&#x441;" horiz-adv-x="944" 
d="M545 -27q-88 0 -171 31.5t-150.5 90t-108.5 153t-41 209.5q0 145 66 256t174.5 168t240.5 57q199 0 340 -123l-109 -149q-50 41 -99.5 59t-115.5 18q-118 0 -195 -79t-77 -207q0 -131 77 -209t191 -78q133 0 234 94l112 -149q-79 -73 -164.5 -107.5t-203.5 -34.5z" />
    <glyph glyph-name="uni0442" unicode="&#x442;" horiz-adv-x="817" 
d="M297 0v721h-262v192h747v-192h-260v-721h-225z" />
    <glyph glyph-name="uni0443" unicode="&#x443;" horiz-adv-x="1001" 
d="M748 913h235v-6l-362 -932q-41 -106 -80.5 -176t-96.5 -127.5t-134 -89.5t-183 -45l-35 184q130 18 198 81t122 190l4 10l-398 905v6h242l160 -393q50 -119 96 -260q35 122 86 260z" />
    <glyph glyph-name="uni0444" unicode="&#x444;" horiz-adv-x="1361" 
d="M1288 457q0 -202 -136 -334.5t-361 -145.5v-432h-222v432q-230 12 -362.5 143.5t-132.5 336.5t132.5 336t362.5 143v496h222v-496q226 -12 361.5 -144.5t135.5 -334.5zM293 457q0 -127 74 -202.5t208 -86.5v577q-134 -11 -208 -86t-74 -202zM786 168q133 11 207 86.5
t74 202.5t-74 202t-207 86v-577z" />
    <glyph glyph-name="uni0445" unicode="&#x445;" horiz-adv-x="968" 
d="M35 0v4l307 471l-281 432v6h250l115 -188q27 -45 57 -109l62 111l117 186h243v-6l-278 -432l307 -471v-4h-252l-133 213q-18 29 -66 123q-35 -75 -65 -123l-135 -213h-248z" />
    <glyph glyph-name="uni0446" unicode="&#x446;" horiz-adv-x="1110" 
d="M942 193h129v-426h-205v233h-735v913h223v-720h365v720h223v-720z" />
    <glyph glyph-name="uni0447" unicode="&#x447;" horiz-adv-x="980" 
d="M627 913h223v-913h-223v338q-108 -59 -230 -59q-157 0 -240 79t-83 240v315h223v-295q0 -78 39 -111.5t123 -33.5q102 0 168 39v401z" />
    <glyph glyph-name="uni0448" unicode="&#x448;" horiz-adv-x="1521" 
d="M1169 913h222v-913h-1260v913h221v-720h297v720h221v-720h299v720z" />
    <glyph glyph-name="uni0449" unicode="&#x449;" horiz-adv-x="1558" 
d="M1391 193h129v-426h-207v233h-1182v913h221v-720h297v720h221v-720h299v720h222v-720z" />
    <glyph glyph-name="uni044A" unicode="&#x44a;" horiz-adv-x="1093" 
d="M698 623q157 0 250.5 -84t93.5 -228q0 -146 -93 -228.5t-251 -82.5h-440v721h-229v192h454v-290h215zM653 172q80 0 123 36t43 103t-43 103.5t-123 36.5h-170v-279h170z" />
    <glyph glyph-name="uni044B" unicode="&#x44b;" horiz-adv-x="1421" 
d="M571 623q157 0 249.5 -84t92.5 -228q0 -147 -92 -229t-250 -82h-440v913h225v-290h215zM1067 913h223v-913h-223v913zM526 172q78 0 121 36t43 103q0 68 -42.5 104t-121.5 36h-170v-279h170z" />
    <glyph glyph-name="uni044C" unicode="&#x44c;" horiz-adv-x="964" 
d="M571 623q157 0 249.5 -84t92.5 -228q0 -147 -92 -229t-250 -82h-440v913h225v-290h215zM526 172q78 0 121 36t43 103q0 68 -42.5 104t-121.5 36h-170v-279h170z" />
    <glyph glyph-name="uni044D" unicode="&#x44d;" horiz-adv-x="954" 
d="M399 938q132 0 240.5 -57t174 -167t65.5 -253q0 -147 -66 -259t-175 -169.5t-241 -57.5q-214 0 -362 148l110 141q106 -100 236 -100q104 0 175.5 59.5t92.5 159.5h-373v162h371q-23 95 -95 150t-169 55q-118 0 -219 -88l-109 139q146 137 344 137z" />
    <glyph glyph-name="uni044E" unicode="&#x44e;" horiz-adv-x="1546" 
d="M983 938q216 0 353 -135t137 -346q0 -212 -136.5 -347t-353.5 -135q-190 0 -318.5 107.5t-156.5 284.5h-154v-367h-223v913h223v-356h156q31 172 158.5 276.5t314.5 104.5zM983 172q117 0 189.5 79.5t72.5 205.5t-72.5 204t-189.5 78q-115 0 -186.5 -78t-71.5 -204
t71.5 -205.5t186.5 -79.5z" />
    <glyph glyph-name="uni044F" unicode="&#x44f;" horiz-adv-x="1011" 
d="M440 913h441v-913h-222v313h-157l-211 -313h-248v10l240 332q-84 34 -130.5 104t-46.5 166q0 137 90.5 219t243.5 82zM475 475h184v264h-184q-73 0 -109 -35.5t-36 -97.5q0 -61 36 -96t109 -35z" />
    <glyph glyph-name="uni0450" unicode="&#x450;" horiz-adv-x="1028" 
d="M633 1067l-328 207l127 147l293 -250zM545 938q193 0 304.5 -121.5t111.5 -327.5q0 -23 -9 -106h-655q21 -108 99.5 -166.5t191.5 -58.5q142 0 241 86l95 -144q-157 -127 -357 -127q-219 0 -356 135t-137 351q0 203 133 341t338 138zM541 756q-92 0 -158 -58.5
t-84 -162.5h451q-4 106 -61.5 163.5t-147.5 57.5z" />
    <glyph glyph-name="uni0451" unicode="&#x451;" horiz-adv-x="1028" 
d="M352 1112q-53 0 -87 35t-34 84q0 48 33.5 84.5t87.5 36.5q52 0 86.5 -36t34.5 -83q0 -48 -34 -84.5t-87 -36.5zM705 1112q-54 0 -88.5 35.5t-34.5 83.5t35 84.5t88 36.5t86.5 -36.5t33.5 -84.5t-34 -83.5t-86 -35.5zM545 938q193 0 304.5 -121.5t111.5 -327.5
q0 -23 -9 -106h-655q21 -108 99.5 -166.5t191.5 -58.5q142 0 241 86l95 -144q-157 -127 -357 -127q-219 0 -356 135t-137 351q0 203 133 341t338 138zM541 756q-92 0 -158 -58.5t-84 -162.5h451q-4 106 -61.5 163.5t-147.5 57.5z" />
    <glyph glyph-name="uni0452" unicode="&#x452;" horiz-adv-x="1077" 
d="M631 911q160 0 242.5 -96t82.5 -264v-629q0 -199 -101 -298t-288 -99l-18 188q102 3 143 51t41 164v609q0 78 -40 126t-118 48q-105 0 -163 -76.5t-58 -190.5v-444h-223v1102h-123v125h123v205h223v-205h320v-125h-320v-197q0 -84 -2 -137q42 66 113 104.5t166 38.5z" />
    <glyph glyph-name="uni0453" unicode="&#x453;" horiz-adv-x="794" 
d="M352 1067l-92 104l291 250l125 -145zM131 0v913h621v-192h-396v-721h-225z" />
    <glyph glyph-name="uni0454" unicode="&#x454;" horiz-adv-x="942" 
d="M803 258l108 -143q-77 -72 -163 -106t-203 -34q-88 0 -171 31.5t-150.5 90t-108.5 152t-41 208.5q0 145 66 256t174 168t239 57q183 0 326 -125l-109 -143q-89 78 -207 78q-94 0 -165 -54t-95 -149h359v-162h-363q21 -102 95 -159.5t173 -57.5q75 0 130 22t106 70z" />
    <glyph glyph-name="uni0455" unicode="&#x455;" horiz-adv-x="815" 
d="M416 -20q-199 0 -355 100l89 158q121 -76 249 -76q62 0 99 25.5t37 68.5q0 16 -6 30.5t-21 27.5t-26.5 21.5t-38.5 20.5t-39.5 17t-45.5 18q-123 47 -190.5 112t-67.5 169q0 121 93 188.5t231 67.5q158 0 299 -82l-78 -150q-105 54 -203 54q-57 0 -93 -19t-36 -59
q0 -41 41.5 -70t124.5 -59q134 -49 204.5 -115t70.5 -172q0 -126 -93 -201t-245 -75z" />
    <glyph glyph-name="uni0456" unicode="&#x456;" horiz-adv-x="485" 
d="M244 1104q-63 0 -101.5 38t-38.5 95t38.5 95t101.5 38t101 -38.5t38 -96.5q0 -56 -38.5 -93.5t-100.5 -37.5zM131 0v913h223v-913h-223z" />
    <glyph glyph-name="uni0457" unicode="&#x457;" horiz-adv-x="485" 
d="M78 1106q-53 0 -87 35t-34 88t34 89t87 36t86 -35.5t33 -89.5q0 -53 -33 -88t-86 -35zM406 1106q-53 0 -87 35t-34 88t34 89t87 36t86.5 -36t33.5 -89t-33.5 -88t-86.5 -35zM131 0v913h223v-913h-223z" />
    <glyph glyph-name="uni0458" unicode="&#x458;" horiz-adv-x="493" 
d="M250 1104q-62 0 -99.5 38t-37.5 93q0 58 37.5 96.5t99.5 38.5q64 0 102.5 -38t38.5 -97q0 -57 -39 -94t-102 -37zM-66 -475l-28 190q72 5 118 23.5t71 54t34.5 81.5t9.5 116v923h223v-923q0 -116 -21 -197.5t-70.5 -140.5t-132 -90t-204.5 -37z" />
    <glyph glyph-name="uni0459" unicode="&#x459;" horiz-adv-x="1486" 
d="M1112 582q148 0 236 -76t88 -213q0 -139 -88.5 -216t-235.5 -77h-422v721h-219l-29 -307q-19 -206 -118 -312t-285 -116l-25 188q196 12 222 303l38 436h641v-331h197zM1071 170q141 0 141 123q0 121 -141 121h-156v-244h156z" />
    <glyph glyph-name="uni045A" unicode="&#x45a;" horiz-adv-x="1490" 
d="M1118 582q148 0 235 -74.5t87 -214.5q0 -137 -88.5 -215t-233.5 -78h-424v399h-340v-399h-223v913h223v-329h340v329h226v-331h198zM1077 172q67 0 104.5 30t37.5 91q0 117 -142 117h-157v-238h157z" />
    <glyph glyph-name="uni045B" unicode="&#x45b;" horiz-adv-x="1077" 
d="M633 911q159 0 241 -96.5t82 -265.5v-549h-223v537q0 78 -39.5 126t-118.5 48q-105 0 -163 -76.5t-58 -190.5v-444h-223v1102h-123v125h123v205h223v-205h328v-125h-328v-197q0 -84 -2 -137q41 66 113.5 104.5t167.5 38.5z" />
    <glyph glyph-name="uni045C" unicode="&#x45c;" horiz-adv-x="952" 
d="M786 1276l-323 -209l-92 104l291 250zM547 471l393 -461v-10h-256l-330 389v-389h-223v913h223v-362l301 362h254v-8z" />
    <glyph glyph-name="uni045D" unicode="&#x45d;" horiz-adv-x="1073" 
d="M727 1182l-92 -105l-328 207l129 148zM856 913h86v-913h-221v418q0 69 4 106q-36 -44 -82 -90l-426 -436h-86v915h221v-409q0 -76 -4 -113q39 47 92 103z" />
    <glyph glyph-name="uni045E" unicode="&#x45e;" horiz-adv-x="1001" 
d="M502 1073q-99 0 -177 46t-122 130l121 90q31 -52 78.5 -79t99.5 -27q51 0 98 27t78 79l123 -88q-44 -85 -122.5 -131.5t-176.5 -46.5zM748 913h235v-6l-362 -932q-41 -106 -80.5 -176t-96.5 -127.5t-134 -89.5t-183 -45l-35 184q130 18 198 81t122 190l4 10l-398 905v6
h242l160 -393q50 -119 96 -260q35 122 86 260z" />
    <glyph glyph-name="uni045F" unicode="&#x45f;" horiz-adv-x="1073" 
d="M942 913v-913h-303v-233h-205v233h-303v913h223v-720h365v720h223z" />
    <glyph glyph-name="uni0490" unicode="&#x490;" horiz-adv-x="1077" 
d="M170 0v1393h651v311h219v-535h-628v-1169h-242z" />
    <glyph glyph-name="uni0491" unicode="&#x491;" horiz-adv-x="794" 
d="M131 0v913h418v224h203v-416h-396v-721h-225z" />
    <glyph glyph-name="Wgrave" unicode="&#x1e80;" horiz-adv-x="1976" 
d="M1075 1528l-342 215l135 155l303 -260zM1694 1393h252v-7l-490 -1394h-72l-337 739q-35 71 -60 154q-37 -109 -59 -154l-338 -739h-72l-487 1394v7h254l243 -725q52 -164 62 -207q44 126 80 205l286 643h60l276 -615q48 -105 94 -231q13 54 70 221z" />
    <glyph glyph-name="wgrave" unicode="&#x1e81;" horiz-adv-x="1382" 
d="M795 1067l-328 207l127 147l293 -250zM1122 913h236v-6l-342 -915h-70l-254 510l-256 -510h-67l-342 915v6h237l142 -405q17 -52 32 -111q16 41 51 113l179 358h47l178 -358q29 -54 53 -115q9 38 35 113z" />
    <glyph glyph-name="Wacute" unicode="&#x1e82;" horiz-adv-x="1976" 
d="M1217 1745l-340 -217l-97 110l303 260zM1694 1393h252v-7l-490 -1394h-72l-337 739q-47 111 -62 156q-21 -72 -57 -156l-338 -739h-72l-487 1394v7h254l243 -725q6 -19 19.5 -61t24 -77t18.5 -71q41 117 80 207l286 643h60l276 -615q62 -138 94 -233q10 42 70 223z" />
    <glyph glyph-name="wacute" unicode="&#x1e83;" horiz-adv-x="1382" 
d="M911 1276l-323 -209l-92 104l290 250zM1122 913h236v-6l-342 -915h-70l-254 510l-256 -510h-67l-342 915v6h237l142 -405q20 -61 32 -111q26 67 51 113l179 358h47l178 -358q29 -54 53 -115q9 38 35 113z" />
    <glyph glyph-name="Wdieresis" unicode="&#x1e84;" horiz-adv-x="1976" 
d="M784 1565q-57 0 -93 37t-36 90t35.5 92t93.5 39q56 0 92.5 -38.5t36.5 -90.5t-35.5 -90.5t-93.5 -38.5zM1188 1565q-57 0 -93 38t-36 91q0 52 36.5 90.5t92.5 38.5t92.5 -38.5t36.5 -90.5q0 -53 -36 -91t-93 -38zM1694 1393h252v-7l-490 -1394h-72l-337 739
q-35 71 -60 154q-37 -109 -59 -154l-338 -739h-72l-487 1394v7h254l243 -725q52 -164 62 -207q44 126 80 205l286 643h60l276 -615q48 -105 94 -231q13 54 70 221z" />
    <glyph glyph-name="wdieresis" unicode="&#x1e85;" horiz-adv-x="1382" 
d="M516 1112q-53 0 -87 35t-34 84q0 48 33.5 84.5t87.5 36.5q52 0 86.5 -36t34.5 -83q0 -48 -34 -84.5t-87 -36.5zM868 1112q-54 0 -88.5 35.5t-34.5 83.5t35 84.5t88 36.5t87 -36.5t34 -84.5q0 -47 -34.5 -83t-86.5 -36zM1122 913h236v-6l-342 -915h-70l-254 510l-256 -510
h-67l-342 915v6h237l142 -405q17 -52 32 -111q16 41 51 113l179 358h47l178 -358q29 -54 53 -115q9 38 35 113z" />
    <glyph glyph-name="uni1E9E" unicode="&#x1e9e;" horiz-adv-x="1361" 
d="M913 858q168 -19 270.5 -133.5t102.5 -280.5q0 -196 -125 -320t-323 -124h-252v203h205q118 0 188 66t70 175q0 108 -70 174t-188 66h-142v121l242 385h-234q-124 0 -191 -77t-67 -218v-895h-237v893q0 241 130 370.5t372 129.5h530v-84z" />
    <glyph glyph-name="Ygrave" unicode="&#x1ef2;" horiz-adv-x="1318" 
d="M748 1528l-342 215l135 155l303 -260zM1014 1393h274v-7l-508 -782v-604h-241v604l-508 782v7h274l250 -394q68 -110 107 -192q34 79 104 192z" />
    <glyph glyph-name="ygrave" unicode="&#x1ef3;" horiz-adv-x="1001" 
d="M606 1067l-327 207l127 147l292 -250zM750 913h233v-6l-539 -1358h-237v5l203 469l-392 884v6h242l195 -467q38 -90 61 -178q14 52 55 178z" />
    <glyph glyph-name="endash" unicode="&#x2013;" horiz-adv-x="1062" 
d="M111 379v176h841v-176h-841z" />
    <glyph glyph-name="emdash" unicode="&#x2014;" horiz-adv-x="1398" 
d="M111 379v174h1177v-174h-1177z" />
    <glyph glyph-name="quoteleft" unicode="&#x2018;" horiz-adv-x="423" 
d="M215 1167q53 0 92 -37t39 -98q0 -64 -40.5 -99.5t-92.5 -35.5q-55 0 -95 44.5t-40 125.5q0 102 54 201t147 174l57 -62q-112 -103 -135 -213h14z" />
    <glyph glyph-name="quoteright" unicode="&#x2019;" horiz-adv-x="423" 
d="M221 1430q55 0 95 -44.5t40 -125.5q0 -102 -53.5 -201t-144.5 -174l-60 59q111 103 135 215h-12q-54 0 -93.5 36.5t-39.5 98.5q0 63 41 99.5t92 36.5z" />
    <glyph glyph-name="quotesinglbase" unicode="&#x201a;" horiz-adv-x="530" 
d="M264 248q60 0 98.5 -42t38.5 -128q0 -103 -55 -199.5t-156 -173.5l-49 62q115 103 135 210h-12q-54 0 -93.5 37t-39.5 99q0 64 40.5 99.5t92.5 35.5z" />
    <glyph glyph-name="quotedblleft" unicode="&#x201c;" horiz-adv-x="770" 
d="M215 1167q54 0 92.5 -36.5t38.5 -98.5q0 -64 -40 -99.5t-91 -35.5q-57 0 -97 44t-40 126q0 102 54 201t147 174l57 -60q-112 -106 -135 -215h14zM559 1167q53 0 92 -37t39 -98q0 -64 -40.5 -99.5t-92.5 -35.5q-55 0 -95 44.5t-40 125.5q0 102 54 201t147 174l57 -60
q-112 -106 -135 -215h14z" />
    <glyph glyph-name="quotedblright" unicode="&#x201d;" horiz-adv-x="770" 
d="M221 1430q57 0 97 -44t40 -126q0 -102 -53.5 -200t-146.5 -175l-58 61q112 100 133 213h-12q-54 0 -93.5 36.5t-39.5 98.5q0 63 41 99.5t92 36.5zM565 1430q57 0 97 -44t40 -126q0 -102 -53.5 -200t-146.5 -175l-58 61q113 104 136 213h-15q-54 0 -92.5 36.5t-38.5 98.5
q0 63 40 99.5t91 36.5z" />
    <glyph glyph-name="quotedblbase" unicode="&#x201e;" horiz-adv-x="876" 
d="M264 248q60 0 98.5 -42t38.5 -128q0 -103 -55 -199.5t-156 -173.5l-49 62q115 103 135 210h-12q-54 0 -93.5 37t-39.5 99q0 64 40.5 99.5t92.5 35.5zM610 248q60 0 99 -42t39 -128q0 -103 -55 -199.5t-156 -173.5l-50 62q116 104 136 210h-13q-54 0 -93.5 37t-39.5 99
q0 64 40.5 99.5t92.5 35.5z" />
    <glyph glyph-name="dagger" unicode="&#x2020;" horiz-adv-x="1196" 
d="M496 -602v1198h-396v186h396v613h202v-613h398v-186h-398v-1198h-202z" />
    <glyph glyph-name="daggerdbl" unicode="&#x2021;" horiz-adv-x="1196" 
d="M496 -602v612h-396v187h396v399h-396v186h396v613h202v-613h398v-186h-398v-399h398v-187h-398v-612h-202z" />
    <glyph glyph-name="bullet" unicode="&#x2022;" horiz-adv-x="665" 
d="M334 518q-84 0 -144.5 51.5t-60.5 147.5t60.5 147t144.5 51q83 0 143 -51t60 -147t-60 -147.5t-143 -51.5z" />
    <glyph glyph-name="ellipsis" unicode="&#x2026;" horiz-adv-x="1449" 
d="M274 -25q-59 0 -102 37t-43 105q0 69 43 106t102 37t102.5 -37t43.5 -106q0 -68 -43.5 -105t-102.5 -37zM725 -25q-59 0 -101 37t-42 105q0 69 42 106t101 37q60 0 102.5 -37t42.5 -106q0 -68 -42.5 -105t-102.5 -37zM1176 -25q-59 0 -101.5 37t-42.5 105q0 69 42.5 106
t101.5 37q60 0 102.5 -37t42.5 -106q0 -68 -42.5 -105t-102.5 -37z" />
    <glyph glyph-name="perthousand" unicode="&#x2030;" horiz-adv-x="2308" 
d="M383 788q-150 0 -235 93.5t-85 222.5q0 82 35 151.5t109.5 115.5t175.5 46q100 0 174 -46t108.5 -115.5t34.5 -151.5q0 -83 -34.5 -153t-108.5 -116.5t-174 -46.5zM297 0l803 1393h196l-800 -1393h-199zM383 944q73 0 108 48.5t35 111.5t-35 111.5t-108 48.5t-108 -48.5
t-35 -111.5t35 -111.5t108 -48.5zM1196 -25q-101 0 -175 46.5t-108 116t-34 151.5q0 129 83.5 222t233.5 93t235 -93t85 -222q0 -82 -35 -152t-109.5 -116t-175.5 -46zM1927 -25q-101 0 -175.5 46.5t-109 116t-34.5 151.5q0 129 84.5 222t234.5 93q100 0 174 -46t109 -116.5
t35 -152.5t-35 -152t-109 -116t-174 -46zM1196 129q73 0 108 48.5t35 111.5t-35 111.5t-108 48.5t-108 -48.5t-35 -111.5t35 -111.5t108 -48.5zM1927 129q73 0 108.5 48.5t35.5 111.5t-35.5 111.5t-108.5 48.5t-108 -48.5t-35 -111.5t35 -111.5t108 -48.5z" />
    <glyph glyph-name="guilsinglleft" unicode="&#x2039;" horiz-adv-x="565" 
d="M311 90l-258 412l254 403l168 -92l-176 -311l178 -320z" />
    <glyph glyph-name="guilsinglright" unicode="&#x203a;" horiz-adv-x="565" 
d="M254 90l-168 92l180 320l-176 311l166 92l256 -403z" />
    <glyph glyph-name="fraction" unicode="&#x2044;" horiz-adv-x="270" 
d="M-297 0l723 1393h154l-721 -1393h-156z" />
    <glyph glyph-name="Euro" unicode="&#x20ac;" horiz-adv-x="1198" 
d="M858 -25q-257 0 -428.5 141.5t-218.5 366.5h-166v144h145q0 7 -1 23t-1 24q0 10 5 67h-148v142h170q61 227 228.5 360t412.5 133q157 0 281 -59l-76 -193q-77 39 -201 39q-149 0 -249 -71.5t-144 -208.5h434l-53 -142h-410q-4 -20 -4 -65q0 -35 2 -49h373l-55 -144h-289
q33 -131 138.5 -212t275.5 -81q109 0 196 43l72 -192q-138 -66 -289 -66z" />
    <glyph glyph-name="uni20BD" unicode="&#x20bd;" horiz-adv-x="1263" 
d="M733 510h-254v-113h516v-155h-516v-242h-241v242h-177v155h177v113h-177v182h177v662h507q109 0 197.5 -34.5t145.5 -93.5t87.5 -136t30.5 -164q0 -81 -29.5 -154.5t-86.5 -132.5t-149.5 -94t-207.5 -35zM479 1145v-453h217q139 0 204 66t65 170q0 99 -67.5 158
t-182.5 59h-236z" />
    <glyph glyph-name="uni2113" unicode="&#x2113;" horiz-adv-x="913" 
d="M526 -25q-155 0 -228 86t-73 238v45q-21 -10 -70.5 -33t-64.5 -30l-63 137q144 66 198 94v510q0 179 84 287t246 108q63 0 114.5 -21.5t84.5 -55.5t55 -79.5t31.5 -90.5t9.5 -91q0 -108 -32.5 -203t-95 -173.5t-140 -142t-181.5 -124.5v-123q0 -74 35.5 -125t104.5 -51
q93 0 164 68l81 -135q-106 -95 -260 -95zM401 618q281 194 281 463q0 65 -32.5 119.5t-96.5 54.5q-73 0 -112.5 -62t-39.5 -169v-406z" />
    <glyph glyph-name="uni2116" unicode="&#x2116;" horiz-adv-x="2177" 
d="M1819 852q-127 0 -211 76t-84 207t83.5 205.5t211.5 74.5q127 0 211 -75t84 -205q0 -131 -84.5 -207t-210.5 -76zM1124 637v756h240v-1401h-94l-752 821q-83 87 -117 127q9 -115 9 -152v-788h-240v1401h92l729 -801q93 -97 139 -149q-6 102 -6 186zM1819 1270
q-58 0 -93.5 -36.5t-35.5 -98.5q0 -63 36 -100.5t93 -37.5t93 37.5t36 100.5q0 62 -35.5 98.5t-93.5 36.5zM1544 604v139h543v-139h-543z" />
    <glyph glyph-name="uni2117" unicode="&#x2117;" horiz-adv-x="1589" 
d="M795 -6q-154 0 -285.5 54.5t-222 149t-142 223.5t-51.5 275t51.5 275t142 223t222 148.5t285.5 54.5q153 0 284 -54.5t221.5 -148.5t141.5 -223t51 -275t-51 -275t-141.5 -223.5t-221.5 -149t-284 -54.5zM795 119q168 0 298 76t199.5 207t69.5 294q0 162 -69.5 292.5
t-199.5 206t-298 75.5q-252 0 -411 -163.5t-159 -410.5q0 -163 71 -294.5t201.5 -207t297.5 -75.5zM551 324v759h323q116 0 185 -74t69 -175q0 -111 -68.5 -185t-189.5 -74h-157v-251h-162zM713 713h125q67 0 98 33t31 88q0 49 -33 78.5t-94 29.5h-127v-229z" />
    <glyph glyph-name="trademark" unicode="&#x2122;" horiz-adv-x="1347" 
d="M254 825v439h-170v129h475v-129h-168v-439h-137zM586 825l86 568h39l207 -279l206 279h39l84 -568h-141l-37 295l-135 -182h-33l-137 182l-37 -295h-141z" />
    <glyph glyph-name="uni2126" unicode="&#x2126;" horiz-adv-x="1595" 
d="M123 0v203h215q-123 87 -187.5 221t-64.5 293q0 143 52 271t144 223t226 150.5t289 55.5q156 0 290 -55.5t225.5 -150.5t143 -223t51.5 -271q0 -160 -64 -294t-186 -220h216v-203h-545v193q164 56 260 192.5t96 316.5q0 220 -136 361t-351 141q-214 0 -350 -141
t-136 -361q0 -180 96 -316.5t261 -192.5v-193h-545z" />
    <glyph glyph-name="estimated" unicode="&#x212e;" horiz-adv-x="1581" 
d="M801 -20q-208 0 -370 98t-249.5 266t-87.5 375q0 152 52 287.5t144 234t224.5 156t286.5 57.5q153 0 282 -57.5t216 -156.5t135.5 -233.5t48.5 -287.5q0 -8 -1 -24.5t-1 -24.5h-1139v-348q78 -108 196.5 -168t262.5 -60q137 0 261 68t208 182l92 -70
q-103 -140 -246.5 -217t-314.5 -77zM342 772h901v356q-76 102 -190 157.5t-252 55.5q-144 0 -263 -58.5t-196 -164.5v-346z" />
    <glyph glyph-name="uni2153" unicode="&#x2153;" horiz-adv-x="1325" 
d="M207 813v367l-78 -68l-78 84l213 203h74v-586h-131zM168 0l723 1393h153l-720 -1393h-156zM1024 -23q-125 0 -205 74l70 92q46 -43 121 -43q43 0 67.5 20.5t24.5 55.5q0 72 -94 72h-66v104h53q36 0 58 17t22 49q0 28 -20 43.5t-49 15.5q-50 0 -95 -33l-73 88
q77 68 188 68q76 0 129 -45.5t53 -114.5q0 -44 -21.5 -80t-58.5 -51q45 -13 78 -53.5t33 -93.5q0 -83 -59 -134t-156 -51z" />
    <glyph glyph-name="uni2154" unicode="&#x2154;" horiz-adv-x="1443" 
d="M508 932v-119h-416v55l217 265q43 58 43 96q0 63 -65 63q-51 0 -88 -75l-103 51q24 73 76.5 110t122.5 37q87 0 139.5 -51.5t52.5 -126.5q0 -82 -69 -172l-107 -133h197zM1010 1393h153l-721 -1393h-155zM1247 309q45 -13 78 -53.5t33 -93.5q0 -83 -59 -134t-156 -51
q-125 0 -205 74l70 92q46 -43 120 -43q43 0 68 20.5t25 55.5q0 72 -95 72h-65v104h53q36 0 58 17t22 49q0 28 -20.5 43.5t-49.5 15.5q-49 0 -94 -33l-74 88q77 68 189 68q76 0 129 -45.5t53 -114.5q0 -44 -21.5 -80t-58.5 -51z" />
    <glyph glyph-name="oneeighth" unicode="&#x215b;" horiz-adv-x="1343" 
d="M207 813v367l-78 -68l-78 84l213 203h74v-586h-131zM168 0l723 1393h153l-720 -1393h-156zM1040 -23q-98 0 -158.5 48.5t-60.5 138.5q0 46 24.5 84.5t67.5 60.5q-65 49 -65 129q0 75 54 119.5t138 44.5t137.5 -44t53.5 -118q0 -84 -68 -129q45 -23 69.5 -62t24.5 -85
q0 -90 -59.5 -138.5t-157.5 -48.5zM1040 360q27 0 44.5 18.5t17.5 45.5q0 29 -17 47t-45 18t-45.5 -18t-17.5 -47q0 -28 17.5 -46t45.5 -18zM1040 92q37 0 60.5 22.5t23.5 59.5t-24.5 60.5t-61.5 23.5q-38 0 -61 -23.5t-23 -60.5t24 -59.5t62 -22.5z" />
    <glyph glyph-name="threeeighths" unicode="&#x215c;" horiz-adv-x="1468" 
d="M289 791q-126 0 -205 73l70 92q46 -43 120 -43q43 0 68 20.5t25 55.5q0 72 -95 72h-65v104h53q36 0 58 17t22 49q0 28 -20.5 43.5t-49.5 15.5q-49 0 -94 -33l-74 89q76 67 189 67q76 0 129 -45.5t53 -114.5q0 -44 -21.5 -80t-58.5 -51q45 -13 78 -53.5t33 -93.5
q0 -83 -59 -133.5t-156 -50.5zM293 0l723 1393h153l-720 -1393h-156zM1165 -23q-98 0 -158.5 48.5t-60.5 138.5q0 46 24.5 84.5t67.5 60.5q-65 49 -65 129q0 75 54 119.5t138 44.5t137.5 -44t53.5 -118q0 -84 -68 -129q45 -23 69.5 -62t24.5 -85q0 -90 -59.5 -138.5
t-157.5 -48.5zM1165 360q27 0 44.5 18.5t17.5 45.5q0 29 -17 47t-45 18t-45.5 -18t-17.5 -47q0 -28 17.5 -46t45.5 -18zM1165 92q37 0 60.5 22.5t23.5 59.5t-24.5 60.5t-61.5 23.5q-38 0 -61 -23.5t-23 -60.5t24 -59.5t62 -22.5z" />
    <glyph glyph-name="fiveeighths" unicode="&#x215d;" horiz-adv-x="1462" 
d="M281 791q-117 0 -193 73l74 90q43 -43 106 -43q41 0 65.5 23.5t24.5 62.5q0 43 -31.5 65.5t-86.5 22.5q-48 0 -97 -14l-12 12l37 310h301v-121h-195l-10 -96q6 0 17 1t16 1q83 0 141 -48.5t58 -136.5q0 -92 -59.5 -147t-155.5 -55zM287 0l723 1393h153l-721 -1393h-155z
M1159 -23q-98 0 -158.5 48.5t-60.5 138.5q0 46 24.5 84.5t67.5 60.5q-65 49 -65 129q0 75 54 119.5t138 44.5t137.5 -44t53.5 -118q0 -84 -68 -129q45 -23 69.5 -62t24.5 -85q0 -90 -59.5 -138.5t-157.5 -48.5zM1159 360q27 0 44.5 18.5t17.5 45.5q0 29 -17 47t-45 18
t-45.5 -18t-17.5 -47q0 -28 17.5 -46t45.5 -18zM1159 92q37 0 60.5 22.5t23.5 59.5t-24.5 60.5t-61.5 23.5q-38 0 -61 -23.5t-23 -60.5t24 -59.5t62 -22.5z" />
    <glyph glyph-name="seveneighths" unicode="&#x215e;" horiz-adv-x="1339" 
d="M119 813l184 459h-215v121h389v-27l-219 -553h-139zM164 0l723 1393h153l-721 -1393h-155zM1036 -23q-98 0 -158.5 48.5t-60.5 138.5q0 46 24.5 84.5t67.5 60.5q-65 49 -65 129q0 75 54 119.5t138 44.5t137.5 -44t53.5 -118q0 -84 -68 -129q45 -23 69.5 -62t24.5 -85
q0 -90 -59.5 -138.5t-157.5 -48.5zM1036 360q27 0 44.5 18.5t17.5 45.5q0 29 -17 47t-45 18t-45.5 -18t-17.5 -47q0 -28 17.5 -46t45.5 -18zM1036 92q37 0 60.5 22.5t23.5 59.5t-24.5 60.5t-61.5 23.5q-38 0 -61 -23.5t-23 -60.5t24 -59.5t62 -22.5z" />
    <glyph glyph-name="arrowleft" unicode="&#x2190;" horiz-adv-x="1273" 
d="M1235 569h-725q-68 0 -111 2q47 -38 80 -71l197 -195l-141 -143l-517 516l519 516l139 -141l-193 -193q-34 -34 -84 -78q82 4 113 4h723v-217z" />
    <glyph glyph-name="arrowup" unicode="&#x2191;" horiz-adv-x="1089" 
d="M436 98v725q0 70 2 111q-39 -48 -71 -78l-195 -199l-143 144l516 516l516 -518l-141 -142l-193 193l-78 84q4 -78 4 -111v-725h-217z" />
    <glyph glyph-name="arrowright" unicode="&#x2192;" horiz-adv-x="1273" 
d="M37 870h725q69 0 112 -2q-29 22 -79 72l-197 195l141 143l516 -516l-518 -516l-139 141l190 193q27 25 86 77q-82 -4 -112 -4h-725v217z" />
    <glyph glyph-name="arrowdown" unicode="&#x2193;" horiz-adv-x="1089" 
d="M653 1343v-725q0 -67 -2 -110q14 17 72 80l195 196l143 -141l-516 -518l-516 518l141 141l192 -192q35 -35 78 -84q-4 82 -4 113v722h217z" />
    <glyph glyph-name="arrowboth" unicode="&#x2194;" horiz-adv-x="1665" 
d="M535 207l-517 516l519 514l139 -141l-191 -191q-42 -42 -86 -78q43 2 113 2h641q70 0 113 -2q-38 29 -80 74l-197 195l141 141l517 -514l-519 -516l-139 141l191 191q36 36 86 77q-41 -2 -113 -2h-641q-70 0 -113 2q37 -28 80 -71l197 -197z" />
    <glyph glyph-name="arrowupdn" unicode="&#x2195;" horiz-adv-x="1089" 
d="M29 1024l516 516l516 -518l-141 -139l-193 190q-47 50 -76 86q2 -43 2 -112v-644q0 -67 -2 -110q25 33 72 80l195 196l143 -141l-516 -518l-516 518l141 141l192 -190q20 -20 78 -86q-2 39 -2 113v641q0 69 2 112q-42 -51 -73 -80l-195 -196z" />
    <glyph glyph-name="uni2196" unicode="&#x2196;" horiz-adv-x="999" 
d="M823 176l-514 514q-49 49 -76 80q5 -49 5 -106l2 -277l-201 -2l-2 731l731 -2v-199h-270q-10 0 -117 5q47 -40 82 -76l514 -514z" />
    <glyph glyph-name="uni2197" unicode="&#x2197;" horiz-adv-x="999" 
d="M25 340l512 512q63 63 79 78q-39 -6 -106 -6l-277 -2l-2 202h732l-2 -731h-199v273q0 28 4 114q-40 -47 -76 -82l-514 -512z" />
    <glyph glyph-name="uni2198" unicode="&#x2198;" horiz-adv-x="999" 
d="M176 1196l512 -514q42 -39 78 -80q-4 41 -4 107l-2 278h201v-729h-732l2 201h271q28 0 114 -4q-6 5 -35.5 32t-45.5 43l-512 512z" />
    <glyph glyph-name="uni2199" unicode="&#x2199;" horiz-adv-x="999" 
d="M975 1044l-512 -514q-2 -2 -80 -75q39 4 106 4l277 2l2 -201l-731 -2l2 731h199v-270q0 -9 -5 -117q32 37 76 84l512 512z" />
    <glyph glyph-name="partialdiff" unicode="&#x2202;" horiz-adv-x="1032" 
d="M506 -25q-116 0 -212.5 47.5t-158 145t-61.5 227.5q0 108 34.5 196.5t91.5 144t129 86t150 30.5q141 0 236 -88q-63 171 -202 302t-314 194l96 184q211 -85 362.5 -233.5t226 -331.5t74.5 -385q0 -144 -50 -260t-154 -187.5t-248 -71.5zM512 172q58 0 102.5 24.5t70 66
t38 89.5t12.5 101q0 92 -59.5 150.5t-155.5 58.5t-161.5 -69t-65.5 -192q0 -97 59.5 -163t159.5 -66z" />
    <glyph glyph-name="emptyset" unicode="&#x2205;" horiz-adv-x="1656" 
d="M1556 1409l-194 -211q184 -200 184 -500q0 -202 -90.5 -366.5t-255 -260.5t-371.5 -96q-257 0 -450 150l-129 -141h-156l201 219q-87 98 -134.5 225t-47.5 270q0 207 91 371t254.5 256t370.5 92q261 0 449 -143l123 135h155zM274 698q0 -224 127 -379l773 842
q-143 105 -345 105q-168 0 -295 -73.5t-193.5 -202t-66.5 -292.5zM1384 698q0 231 -127 383l-774 -841q141 -113 346 -113q168 0 295.5 77t193.5 206t66 288z" />
    <glyph glyph-name="uni2206" unicode="&#x2206;" horiz-adv-x="1370" 
d="M10 0v8l641 1393h68l641 -1395v-6h-1350zM338 195h690l-344 751z" />
    <glyph glyph-name="product" unicode="&#x220f;" horiz-adv-x="1433" 
d="M170 0v1393h1094v-1393h-242v1184h-610v-1184h-242z" />
    <glyph glyph-name="summation" unicode="&#x2211;" horiz-adv-x="1128" 
d="M74 0v92l418 604l-418 604v93h995v-211h-643l342 -486l-342 -485h643v-211h-995z" />
    <glyph glyph-name="minus" unicode="&#x2212;" horiz-adv-x="1052" 
d="M121 602v184h811v-184h-811z" />
    <glyph glyph-name="radical" unicode="&#x221a;" horiz-adv-x="1253" 
d="M1085 1485h228l-649 -1485h-111l-295 643h-235v199h360l221 -510z" />
    <glyph glyph-name="infinity" unicode="&#x221e;" horiz-adv-x="1468" 
d="M414 399q-130 0 -222 87.5t-92 230.5t92 230t222 87q97 0 172.5 -47t148.5 -133q73 87 148.5 133.5t173.5 46.5q130 0 221.5 -87t91.5 -230t-91.5 -230.5t-221.5 -87.5q-98 0 -173.5 47t-148.5 134q-73 -87 -148.5 -134t-172.5 -47zM432 584q53 0 99 32.5t104 100.5
q-58 68 -104 100.5t-99 32.5q-50 0 -90.5 -35t-40.5 -98t40.5 -98t90.5 -35zM1038 584q48 0 88.5 35.5t40.5 97.5t-40.5 97.5t-88.5 35.5q-54 0 -99.5 -32t-104.5 -101q59 -69 104.5 -101t99.5 -32z" />
    <glyph glyph-name="integral" unicode="&#x222b;" horiz-adv-x="940" 
d="M229 -373q-126 0 -245 86l88 164q73 -51 141 -51q141 0 141 174v1051q0 179 96 272.5t246 93.5q128 0 244 -86l-86 -164q-77 52 -141 52q-142 0 -142 -175v-1050q0 -179 -97 -273t-245 -94z" />
    <glyph glyph-name="approxequal" unicode="&#x2248;" horiz-adv-x="1171" 
d="M272 727l-157 82q74 235 276 235q88 0 197 -67q4 -2 24 -14.5t25.5 -15.5t22.5 -12t25 -12t21 -8t24 -6.5t22 -1.5q83 0 122 123l162 -80q-31 -112 -98 -177.5t-170 -65.5q-81 0 -190 63q-5 3 -24.5 14.5t-26 15.5t-23 13t-25.5 12t-23 8t-26 7t-24 2q-53 0 -82 -28.5
t-52 -86.5zM293 336l-158 84q34 108 103 170.5t174 62.5q84 0 196 -65q8 -5 28.5 -17.5t29 -17.5t26 -14t28.5 -12.5t25 -7t27 -3.5q85 0 123 125l162 -80q-31 -112 -98.5 -178t-170.5 -66q-50 0 -93 16.5t-97 47.5q-2 1 -17 10t-18 11t-16.5 9.5t-18 9.5t-16 8t-17.5 8
l-16.5 5.5t-18 5t-16.5 2.5t-18 1q-53 0 -82 -28t-51 -87z" />
    <glyph glyph-name="notequal" unicode="&#x2260;" horiz-adv-x="1058" 
d="M918 801h-248l-121 -205h369v-186h-478l-129 -224l-116 74l86 150h-129v186h237l121 205h-358v186h466l130 223l120 -67l-90 -156h140v-186z" />
    <glyph glyph-name="lessequal" unicode="&#x2264;" horiz-adv-x="878" 
d="M772 461l-696 295v190l696 295v-215l-444 -174l444 -176v-215zM772 186h-696v181h696v-181z" />
    <glyph glyph-name="greaterequal" unicode="&#x2265;" horiz-adv-x="878" 
d="M106 461v215l445 176l-445 174v215l697 -295v-190zM106 186v181h697v-181h-697z" />
    <glyph glyph-name="lozenge" unicode="&#x25ca;" horiz-adv-x="1136" 
d="M532 0l-473 696l473 697h72l473 -697l-473 -696h-72zM567 319l256 377l-256 371l-254 -371z" />
    <glyph glyph-name="i.loclTRK" horiz-adv-x="485" 
d="M242 1112q-58 0 -95.5 38.5t-37.5 94.5q0 58 37.5 96.5t95.5 38.5q61 0 99 -39t38 -98q0 -56 -38.5 -93.5t-98.5 -37.5zM131 0v913h223v-913h-223z" />
    <glyph glyph-name="germandbls.calt" horiz-adv-x="1361" 
d="M913 858q168 -19 270.5 -133.5t102.5 -280.5q0 -196 -125 -320t-323 -124h-252v203h205q118 0 188 66t70 175q0 108 -70 174t-188 66h-142v121l242 385h-234q-124 0 -191 -77t-67 -218v-895h-237v893q0 241 130 370.5t372 129.5h530v-84z" />
    <glyph glyph-name="a.ss01" horiz-adv-x="1171" 
d="M877 913h163v-913h-166l-30 129q-121 -152 -330 -152q-192 0 -314 132t-122 348q0 212 123 345.5t317 133.5q201 0 322 -154zM561 172q119 0 191.5 77t72.5 208q0 130 -72.5 206t-191.5 76q-115 0 -186.5 -76.5t-71.5 -205.5q0 -131 71.5 -208t186.5 -77z" />
    <glyph glyph-name="aacute.ss01" horiz-adv-x="1171" 
d="M780 1276l-323 -209l-92 104l290 250zM877 913h163v-913h-166l-30 129q-121 -152 -330 -152q-192 0 -314 132t-122 348q0 212 123 345.5t317 133.5q201 0 322 -154zM561 172q119 0 191.5 77t72.5 208q0 130 -72.5 206t-191.5 76q-115 0 -186.5 -76.5t-71.5 -205.5
q0 -131 71.5 -208t186.5 -77z" />
    <glyph glyph-name="abreve.ss01" horiz-adv-x="1171" 
d="M559 1065q-99 0 -171.5 55.5t-102.5 167.5l127 55q15 -56 55 -87t92 -31q53 0 94 31.5t54 86.5l127 -55q-28 -111 -101.5 -167t-173.5 -56zM877 913h163v-913h-166l-30 129q-121 -152 -330 -152q-192 0 -314 132t-122 348q0 212 123 345.5t317 133.5q201 0 322 -154z
M561 172q119 0 191.5 77t72.5 208q0 130 -72.5 206t-191.5 76q-115 0 -186.5 -76.5t-71.5 -205.5q0 -131 71.5 -208t186.5 -77z" />
    <glyph glyph-name="acircumflex.ss01" horiz-adv-x="1171" 
d="M559 1188l-194 -137l-82 102l260 217h35l256 -219l-80 -100zM877 913h163v-913h-166l-30 129q-121 -152 -330 -152q-192 0 -314 132t-122 348q0 212 123 345.5t317 133.5q201 0 322 -154zM561 172q119 0 191.5 77t72.5 208q0 130 -72.5 206t-191.5 76
q-115 0 -186.5 -76.5t-71.5 -205.5q0 -131 71.5 -208t186.5 -77z" />
    <glyph glyph-name="adieresis.ss01" horiz-adv-x="1171" 
d="M383 1112q-53 0 -87 35t-34 84q0 48 33.5 84.5t87.5 36.5q52 0 86.5 -36t34.5 -83q0 -48 -34 -84.5t-87 -36.5zM735 1112q-54 0 -88.5 35.5t-34.5 83.5t35 84.5t88 36.5t87 -36.5t34 -84.5q0 -47 -34.5 -83t-86.5 -36zM877 913h163v-913h-166l-30 129
q-121 -152 -330 -152q-192 0 -314 132t-122 348q0 212 123 345.5t317 133.5q201 0 322 -154zM561 172q119 0 191.5 77t72.5 208q0 130 -72.5 206t-191.5 76q-115 0 -186.5 -76.5t-71.5 -205.5q0 -131 71.5 -208t186.5 -77z" />
    <glyph glyph-name="agrave.ss01" horiz-adv-x="1171" 
d="M664 1067l-328 207l127 147l293 -250zM877 913h163v-913h-166l-30 129q-121 -152 -330 -152q-192 0 -314 132t-122 348q0 212 123 345.5t317 133.5q201 0 322 -154zM561 172q119 0 191.5 77t72.5 208q0 130 -72.5 206t-191.5 76q-115 0 -186.5 -76.5t-71.5 -205.5
q0 -131 71.5 -208t186.5 -77z" />
    <glyph glyph-name="amacron.ss01" horiz-adv-x="1171" 
d="M285 1120v162h549v-162h-549zM877 913h163v-913h-166l-30 129q-121 -152 -330 -152q-192 0 -314 132t-122 348q0 212 123 345.5t317 133.5q201 0 322 -154zM561 172q119 0 191.5 77t72.5 208q0 130 -72.5 206t-191.5 76q-115 0 -186.5 -76.5t-71.5 -205.5
q0 -131 71.5 -208t186.5 -77z" />
    <glyph glyph-name="aogonek.ss01" horiz-adv-x="1187" 
d="M1051 -254l49 -137q-74 -53 -185 -53q-102 0 -155 51.5t-53 128.5q0 138 178 287l-25 106q-121 -152 -330 -152q-192 0 -314 132t-122 348q0 212 123.5 345.5t317.5 133.5q200 0 321 -154l37 131h164v-911l2 -2q-160 -129 -160 -223q0 -60 66 -60q43 0 86 29zM578 172
q119 0 191.5 77t72.5 208q0 130 -72.5 206t-191.5 76q-115 0 -187 -76.5t-72 -205.5q0 -130 72 -207.5t187 -77.5z" />
    <glyph glyph-name="atilde.ss01" horiz-adv-x="1171" 
d="M391 1106l-125 70q67 165 180 165q63 0 121 -32q68 -33 90 -33q40 0 68 63l125 -67q-65 -164 -178 -164q-54 0 -113 29q-66 34 -94 34q-47 0 -74 -65zM877 913h163v-913h-166l-30 129q-121 -152 -330 -152q-192 0 -314 132t-122 348q0 212 123 345.5t317 133.5
q201 0 322 -154zM561 172q119 0 191.5 77t72.5 208q0 130 -72.5 206t-191.5 76q-115 0 -186.5 -76.5t-71.5 -205.5q0 -131 71.5 -208t186.5 -77z" />
    <glyph glyph-name="ae.ss01" horiz-adv-x="1720" 
d="M1313 160q149 0 250 82l88 -144q-140 -118 -334 -118q-220 0 -320 149l-12 -129h-154l-12 119q-56 -66 -137 -102.5t-176 -36.5q-188 0 -308 131.5t-120 343.5t121 345.5t311 133.5q193 0 303 -135l18 114h150l20 -127q46 71 126.5 111.5t189.5 40.5q145 0 244.5 -84
t99.5 -227q0 -275 -393 -275q-117 0 -228 15q23 -101 95.5 -154t177.5 -53zM1284 758q-99 0 -165 -63.5t-83 -174.5q100 -14 211 -14q48 0 84.5 5.5t66 19t45 38t15.5 60.5q0 60 -48.5 94.5t-125.5 34.5zM553 174q125 0 189.5 78t64.5 203q0 126 -64 204t-190 78
q-113 0 -181.5 -77.5t-68.5 -204.5q0 -130 68.5 -205.5t181.5 -75.5z" />
    <glyph glyph-name="aeacute.ss01" horiz-adv-x="1720" 
d="M1130 1276l-323 -209l-92 104l291 250zM1313 160q149 0 250 82l88 -144q-140 -118 -334 -118q-220 0 -320 149l-12 -129h-154l-12 119q-56 -66 -137 -102.5t-176 -36.5q-188 0 -308 131.5t-120 343.5t121 345.5t311 133.5q193 0 303 -135l18 114h150l20 -127
q46 71 126.5 111.5t189.5 40.5q145 0 244.5 -84t99.5 -227q0 -275 -393 -275q-117 0 -228 15q23 -101 95.5 -154t177.5 -53zM1284 758q-99 0 -165 -63.5t-83 -174.5q100 -14 211 -14q48 0 84.5 5.5t66 19t45 38t15.5 60.5q0 60 -48.5 94.5t-125.5 34.5zM553 174
q125 0 189.5 78t64.5 203q0 126 -64 204t-190 78q-113 0 -181.5 -77.5t-68.5 -204.5q0 -130 68.5 -205.5t181.5 -75.5z" />
    <glyph glyph-name="e.ss01" horiz-adv-x="991" 
d="M588 156q140 0 248 88l86 -148q-151 -123 -361 -123q-220 0 -353.5 135.5t-133.5 348.5q0 132 55.5 240.5t165 174.5t252.5 66q172 0 277.5 -89t105.5 -228q0 -132 -102.5 -200.5t-284.5 -68.5q-116 0 -240 15q24 -101 100.5 -156t184.5 -55zM551 760
q-104 0 -170.5 -63.5t-83.5 -176.5q92 -12 213 -12q110 0 163.5 26.5t53.5 90.5q0 59 -49 97t-127 38z" />
    <glyph glyph-name="eacute.ss01" horiz-adv-x="991" 
d="M756 1276l-324 -209l-92 104l291 250zM588 156q140 0 248 88l86 -148q-151 -123 -361 -123q-220 0 -353.5 135.5t-133.5 348.5q0 132 55.5 240.5t165 174.5t252.5 66q172 0 277.5 -89t105.5 -228q0 -132 -102.5 -200.5t-284.5 -68.5q-116 0 -240 15q24 -101 100.5 -156
t184.5 -55zM551 760q-104 0 -170.5 -63.5t-83.5 -176.5q94 -12 213 -12q110 0 163.5 26.5t53.5 90.5q0 59 -49 97t-127 38z" />
    <glyph glyph-name="ebreve.ss01" horiz-adv-x="991" 
d="M535 1065q-99 0 -172 56t-103 167l127 55q15 -56 55.5 -87t92.5 -31q53 0 93.5 31.5t53.5 86.5l127 -55q-28 -111 -101 -167t-173 -56zM588 156q140 0 248 88l86 -148q-151 -123 -361 -123q-220 0 -353.5 135.5t-133.5 348.5q0 132 55.5 240.5t165 174.5t252.5 66
q172 0 277.5 -89t105.5 -228q0 -132 -102.5 -200.5t-284.5 -68.5q-116 0 -240 15q24 -101 100.5 -156t184.5 -55zM551 760q-104 0 -170.5 -63.5t-83.5 -176.5q94 -12 213 -12q110 0 163.5 26.5t53.5 90.5q0 59 -49 97t-127 38z" />
    <glyph glyph-name="ecaron.ss01" horiz-adv-x="991" 
d="M551 1061h-35l-256 221l78 98l194 -137l197 137l82 -100zM588 156q140 0 248 88l86 -148q-151 -123 -361 -123q-220 0 -353.5 135.5t-133.5 348.5q0 132 55.5 240.5t165 174.5t252.5 66q172 0 277.5 -89t105.5 -228q0 -132 -102.5 -200.5t-284.5 -68.5q-116 0 -240 15
q24 -101 100.5 -156t184.5 -55zM551 760q-104 0 -170.5 -63.5t-83.5 -176.5q94 -12 213 -12q110 0 163.5 26.5t53.5 90.5q0 59 -49 97t-127 38z" />
    <glyph glyph-name="ecircumflex.ss01" horiz-adv-x="991" 
d="M535 1188l-195 -137l-82 102l260 217h35l256 -219l-80 -100zM588 156q140 0 248 88l86 -148q-151 -123 -361 -123q-220 0 -353.5 135.5t-133.5 348.5q0 132 55.5 240.5t165 174.5t252.5 66q172 0 277.5 -89t105.5 -228q0 -132 -102.5 -200.5t-284.5 -68.5q-116 0 -240 15
q24 -101 100.5 -156t184.5 -55zM551 760q-104 0 -170.5 -63.5t-83.5 -176.5q94 -12 213 -12q110 0 163.5 26.5t53.5 90.5q0 59 -49 97t-127 38z" />
    <glyph glyph-name="edieresis.ss01" horiz-adv-x="991" 
d="M358 1112q-53 0 -86.5 35t-33.5 84t33 85t87 36q52 0 86.5 -36t34.5 -83q0 -48 -34 -84.5t-87 -36.5zM711 1112q-54 0 -88.5 35.5t-34.5 83.5t35 84.5t88 36.5t86.5 -36.5t33.5 -84.5t-34 -83.5t-86 -35.5zM588 156q140 0 248 88l86 -148q-151 -123 -361 -123
q-220 0 -353.5 135.5t-133.5 348.5q0 132 55.5 240.5t165 174.5t252.5 66q172 0 277.5 -89t105.5 -228q0 -132 -102.5 -200.5t-284.5 -68.5q-116 0 -240 15q24 -101 100.5 -156t184.5 -55zM551 760q-104 0 -170.5 -63.5t-83.5 -176.5q92 -12 213 -12q110 0 163.5 26.5
t53.5 90.5q0 59 -49 97t-127 38z" />
    <glyph glyph-name="edotaccent.ss01" horiz-adv-x="991" 
d="M535 1098q-57 0 -94.5 37.5t-37.5 91.5q0 57 37.5 95t94.5 38q58 0 94.5 -37.5t36.5 -95.5q0 -55 -37 -92t-94 -37zM588 156q140 0 248 88l86 -148q-151 -123 -361 -123q-220 0 -353.5 135.5t-133.5 348.5q0 132 55.5 240.5t165 174.5t252.5 66q172 0 277.5 -89
t105.5 -228q0 -132 -102.5 -200.5t-284.5 -68.5q-116 0 -240 15q24 -101 100.5 -156t184.5 -55zM551 760q-104 0 -170.5 -63.5t-83.5 -176.5q92 -12 213 -12q110 0 163.5 26.5t53.5 90.5q0 59 -49 97t-127 38z" />
    <glyph glyph-name="egrave.ss01" horiz-adv-x="991" 
d="M639 1067l-328 207l127 147l293 -250zM588 156q140 0 248 88l86 -148q-151 -123 -361 -123q-220 0 -353.5 135.5t-133.5 348.5q0 132 55.5 240.5t165 174.5t252.5 66q172 0 277.5 -89t105.5 -228q0 -132 -102.5 -200.5t-284.5 -68.5q-116 0 -240 15q24 -101 100.5 -156
t184.5 -55zM551 760q-104 0 -170.5 -63.5t-83.5 -176.5q92 -12 213 -12q110 0 163.5 26.5t53.5 90.5q0 59 -49 97t-127 38z" />
    <glyph glyph-name="emacron.ss01" horiz-adv-x="991" 
d="M260 1120v162h549v-162h-549zM588 156q140 0 248 88l86 -148q-151 -123 -361 -123q-220 0 -353.5 135.5t-133.5 348.5q0 132 55.5 240.5t165 174.5t252.5 66q172 0 277.5 -89t105.5 -228q0 -132 -102.5 -200.5t-284.5 -68.5q-116 0 -240 15q24 -101 100.5 -156t184.5 -55
zM551 760q-104 0 -170.5 -63.5t-83.5 -176.5q92 -12 213 -12q110 0 163.5 26.5t53.5 90.5q0 59 -49 97t-127 38z" />
    <glyph glyph-name="eogonek.ss01" horiz-adv-x="991" 
d="M932 98q-128 -117 -177.5 -192.5t-49.5 -130.5q0 -62 67 -62q35 0 84 29l49 -135q-78 -56 -184 -56q-103 0 -157 51t-54 130q0 115 127 248q-62 -5 -74 -5q-220 0 -353.5 134.5t-133.5 347.5q0 131 55.5 239.5t165 175t252.5 66.5q171 0 277 -89t106 -226
q0 -134 -102.5 -202.5t-286.5 -68.5q-114 0 -238 15q24 -101 101.5 -155t187.5 -54q141 0 246 82zM549 758q-101 0 -167 -63.5t-83 -174.5q95 -12 213 -12q110 0 163.5 27t53.5 92q0 58 -49.5 94.5t-130.5 36.5z" />
    <glyph glyph-name="g.ss01" horiz-adv-x="966" 
d="M653 106q138 -8 215.5 -69t77.5 -176q0 -141 -127 -238.5t-327 -97.5q-110 0 -195.5 25.5t-136 69t-76 97.5t-25.5 115q0 62 25.5 118.5t71.5 94.5q-60 60 -60 143q0 100 84 172q-86 92 -86 228q0 149 106 249.5t294 100.5q73 0 220.5 -13.5t221.5 -13.5v-137l-135 -10
q86 -83 86 -197q0 -139 -104.5 -233t-288.5 -94q-93 0 -166 24q-15 -21 -15 -51q0 -39 32 -64t97 -28zM494 764q-83 0 -129 -50.5t-46 -127.5t46 -127.5t129 -50.5q84 0 129 50t45 128t-45 128t-129 50zM502 -307q89 0 157 40.5t68 102.5q0 42 -32.5 66.5t-90.5 27.5
l-164 11q-64 3 -108 14q-47 -44 -47 -117q0 -61 54.5 -103t162.5 -42z" />
    <glyph glyph-name="gbreve.ss01" horiz-adv-x="966" 
d="M496 1065q-99 0 -172 56t-103 167l127 55q15 -56 55.5 -87t92.5 -31q53 0 93.5 31.5t53.5 86.5l127 -55q-28 -111 -101 -167t-173 -56zM653 106q138 -8 215.5 -69t77.5 -176q0 -141 -127 -238.5t-327 -97.5q-110 0 -195.5 25.5t-136 69t-76 97.5t-25.5 115
q0 62 25.5 118.5t71.5 94.5q-60 60 -60 143q0 103 84 172q-86 92 -86 228q0 149 106 249.5t294 100.5q73 0 220.5 -13.5t221.5 -13.5v-137l-135 -10q86 -83 86 -197q0 -139 -104.5 -233t-288.5 -94q-94 0 -164 24q-17 -20 -17 -51q0 -39 32 -64t97 -28zM494 764
q-83 0 -129 -50.5t-46 -127.5t46 -127.5t129 -50.5q84 0 129 50t45 128t-45 128t-129 50zM502 -307q89 0 157 40.5t68 102.5q0 42 -32.5 66.5t-90.5 27.5l-164 11q-43 2 -108 14q-47 -41 -47 -117q0 -61 54.5 -103t162.5 -42z" />
    <glyph glyph-name="gcircumflex.ss01" horiz-adv-x="966" 
d="M494 1188l-195 -137l-82 102l260 217h35l256 -219l-80 -100zM653 106q138 -8 215.5 -69t77.5 -176q0 -141 -127 -238.5t-327 -97.5q-110 0 -195.5 25.5t-136 69t-76 97.5t-25.5 115q0 62 25.5 118.5t71.5 94.5q-60 60 -60 143q0 103 84 172q-86 92 -86 228
q0 149 106 249.5t294 100.5q73 0 220.5 -13.5t221.5 -13.5v-137l-135 -10q86 -83 86 -197q0 -139 -104.5 -233t-288.5 -94q-94 0 -164 24q-17 -20 -17 -51q0 -39 32 -64t97 -28zM494 764q-83 0 -129 -50.5t-46 -127.5t46 -127.5t129 -50.5q84 0 129 50t45 128t-45 128
t-129 50zM502 -307q89 0 157 40.5t68 102.5q0 42 -32.5 66.5t-90.5 27.5l-164 11q-43 2 -108 14q-47 -41 -47 -117q0 -61 54.5 -103t162.5 -42z" />
    <glyph glyph-name="uni0123.ss01" horiz-adv-x="966" 
d="M647 1470q-53 -175 -53 -385h-207q17 224 115 385h145zM653 106q138 -8 215.5 -69t77.5 -176q0 -141 -127 -238.5t-327 -97.5q-110 0 -195.5 25.5t-136 69t-76 97.5t-25.5 115q0 62 25.5 118.5t71.5 94.5q-60 60 -60 143q0 103 84 172q-86 92 -86 228q0 149 106 249.5
t294 100.5q73 0 220.5 -13.5t221.5 -13.5v-137l-135 -10q86 -83 86 -197q0 -139 -104.5 -233t-288.5 -94q-94 0 -164 24q-17 -20 -17 -51q0 -39 32 -64t97 -28zM494 764q-83 0 -129 -50.5t-46 -127.5t46 -127.5t129 -50.5q84 0 129 50t45 128t-45 128t-129 50zM502 -307
q89 0 157 40.5t68 102.5q0 42 -32.5 66.5t-90.5 27.5l-164 11q-43 2 -108 14q-47 -41 -47 -117q0 -61 54.5 -103t162.5 -42z" />
    <glyph glyph-name="gdotaccent.ss01" horiz-adv-x="966" 
d="M496 1098q-56 0 -93.5 37t-37.5 92q0 57 37 95t94 38q58 0 94.5 -37.5t36.5 -95.5q0 -55 -37.5 -92t-93.5 -37zM653 106q138 -8 215.5 -69t77.5 -176q0 -141 -127 -238.5t-327 -97.5q-110 0 -195.5 25.5t-136 69t-76 97.5t-25.5 115q0 62 25.5 118.5t71.5 94.5
q-60 60 -60 143q0 100 84 172q-86 92 -86 228q0 149 106 249.5t294 100.5q73 0 220.5 -13.5t221.5 -13.5v-137l-135 -10q86 -83 86 -197q0 -139 -104.5 -233t-288.5 -94q-93 0 -166 24q-15 -21 -15 -51q0 -39 32 -64t97 -28zM494 764q-83 0 -129 -50.5t-46 -127.5t46 -127.5
t129 -50.5q84 0 129 50t45 128t-45 128t-129 50zM502 -307q89 0 157 40.5t68 102.5q0 42 -32.5 66.5t-90.5 27.5l-164 11q-64 3 -108 14q-47 -44 -47 -117q0 -61 54.5 -103t162.5 -42z" />
    <glyph glyph-name="y.ss01" horiz-adv-x="1071" 
d="M717 913h223v-960q0 -106 -35 -189t-96 -134.5t-140 -78t-171 -26.5q-231 0 -373 133l86 168q106 -100 270 -100q103 0 168.5 58.5t65.5 168.5v160q-87 -131 -273 -131q-154 0 -237.5 97t-83.5 263v571h223v-561q0 -77 40 -123.5t120 -46.5q101 0 157 73.5t56 193.5v464z
" />
    <glyph glyph-name="yacute.ss01" horiz-adv-x="1071" 
d="M750 1276l-324 -209l-92 104l291 250zM717 913h223v-960q0 -106 -35 -189t-96 -134.5t-140 -78t-171 -26.5q-231 0 -373 133l86 168q106 -100 270 -100q103 0 168.5 58.5t65.5 168.5v160q-87 -131 -273 -131q-154 0 -237.5 97t-83.5 263v571h223v-561q0 -77 40 -123.5
t120 -46.5q101 0 157 73.5t56 193.5v464z" />
    <glyph glyph-name="ycircumflex.ss01" horiz-adv-x="1071" 
d="M528 1188l-194 -137l-82 102l260 217h35l256 -219l-80 -100zM717 913h223v-960q0 -106 -35 -189t-96 -134.5t-140 -78t-171 -26.5q-231 0 -373 133l86 168q106 -100 270 -100q103 0 168.5 58.5t65.5 168.5v160q-87 -131 -273 -131q-154 0 -237.5 97t-83.5 263v571h223
v-561q0 -77 40 -123.5t120 -46.5q101 0 157 73.5t56 193.5v464z" />
    <glyph glyph-name="ydieresis.ss01" horiz-adv-x="1071" 
d="M352 1112q-53 0 -87 35t-34 84q0 48 33.5 84.5t87.5 36.5q52 0 86.5 -36t34.5 -83q0 -48 -34 -84.5t-87 -36.5zM705 1112q-54 0 -88.5 35.5t-34.5 83.5t35 84.5t88 36.5t86.5 -36.5t33.5 -84.5t-34 -83.5t-86 -35.5zM717 913h223v-960q0 -106 -35 -189t-96 -134.5
t-140 -78t-171 -26.5q-231 0 -373 133l86 168q106 -100 270 -100q103 0 168.5 58.5t65.5 168.5v160q-87 -131 -273 -131q-154 0 -237.5 97t-83.5 263v571h223v-561q0 -77 40 -123.5t120 -46.5q101 0 157 73.5t56 193.5v464z" />
    <glyph glyph-name="ygrave.ss01" horiz-adv-x="1071" 
d="M633 1067l-328 207l127 147l293 -250zM717 913h223v-960q0 -106 -35 -189t-96 -134.5t-140 -78t-171 -26.5q-231 0 -373 133l86 168q106 -100 270 -100q103 0 168.5 58.5t65.5 168.5v160q-87 -131 -273 -131q-154 0 -237.5 97t-83.5 263v571h223v-561q0 -77 40 -123.5
t120 -46.5q101 0 157 73.5t56 193.5v464z" />
    <glyph glyph-name="f_b" horiz-adv-x="1880" 
d="M1364 936q192 0 316 -133.5t124 -339.5q0 -217 -122 -351.5t-318 -134.5q-212 0 -330 160l-39 -137h-153v1229q-106 74 -230 74q-90 0 -140 -49t-50 -150v-191h250v-190h-248v-723h-223v723h-170v190h170v211q0 175 96.5 277t271.5 102q169 0 299 -100l19 72h178v-408
q0 -136 -6 -262q54 62 133.5 96.5t171.5 34.5zM1319 172q117 0 188.5 78.5t71.5 206.5q0 126 -71.5 204t-188.5 78q-118 0 -191 -78t-73 -204q0 -128 72 -206.5t192 -78.5z" />
    <glyph glyph-name="f_f_b" horiz-adv-x="2603" 
d="M2087 936q193 0 316.5 -133.5t123.5 -339.5q0 -217 -122 -351.5t-318 -134.5q-106 0 -191 42t-141 118l-35 -137h-155v1223q-63 42 -120 61t-130 19q-90 0 -140.5 -49t-50.5 -150v-191h244v-190h-242v-723h-223v723h-481v-723h-223v723h-168v190h168v242q0 158 85.5 253
t239.5 95q127 0 238 -53l-64 -172q-61 25 -129 25q-67 0 -107 -41.5t-40 -118.5v-230h481v211q0 175 97 277t272 102q180 0 319 -106l19 78h178v-408q0 -141 -6 -264q55 62 134.5 97.5t170.5 35.5zM2042 172q117 0 188.5 78.5t71.5 206.5q0 126 -71.5 204t-188.5 78
q-118 0 -190 -78t-72 -204q0 -128 71.5 -206.5t190.5 -78.5z" />
    <glyph glyph-name="f_f_h" horiz-adv-x="2508" 
d="M2058 938q157 0 244.5 -98t87.5 -260v-580h-223v565q0 77 -43 124.5t-123 47.5q-100 0 -156.5 -76t-56.5 -190v-471h-223v1217q-63 45 -120 65.5t-130 20.5q-90 0 -140.5 -49t-50.5 -150v-191h244v-190h-242v-723h-223v723h-481v-723h-223v723h-168v190h168v242
q0 158 85.5 253t239.5 95q123 0 238 -53l-64 -172q-62 25 -129 25t-107 -41.5t-40 -118.5v-230h481v211q0 175 97.5 277t273.5 102q179 0 317 -117l23 89h174v-545q0 -82 -4 -135q44 67 114 105t160 38z" />
    <glyph glyph-name="f_f_j" horiz-adv-x="1918" 
d="M1788 913v-933q0 -225 -96.5 -334t-331.5 -121l-29 190q137 10 185.5 73t48.5 202v733h-439v-723h-223v723h-481v-723h-223v723h-168v190h168v242q0 158 85.5 253t239.5 95q121 0 238 -53l-64 -172q-58 25 -129 25q-67 0 -107 -41.5t-40 -118.5v-230h481v197
q0 190 102 291.5t291 101.5q114 0 206.5 -35t183.5 -108l-87 -150q-69 48 -127 70.5t-133 22.5q-101 0 -158 -49.5t-57 -155.5v-185h664z" />
    <glyph glyph-name="f_f_k" horiz-adv-x="2385" 
d="M1980 471l394 -459v-12h-258l-328 389v-389h-223v1223q-111 80 -250 80q-90 0 -140.5 -49t-50.5 -150v-191h242v-190h-240v-723h-223v723h-481v-723h-223v723h-168v190h168v242q0 158 85.5 253t239.5 95q123 0 238 -53l-64 -172q-58 25 -129 25q-67 0 -107 -41.5
t-40 -118.5v-230h481v211q0 175 97.5 277t273.5 102q182 0 317 -106l19 78h178v-924l303 362h252v-10z" />
    <glyph glyph-name="f_h" horiz-adv-x="1785" 
d="M1335 938q157 0 244.5 -98t87.5 -260v-580h-225v565q0 77 -42 124.5t-122 47.5q-100 0 -156.5 -76t-56.5 -190v-471h-223v1229q-106 74 -230 74q-91 0 -140.5 -49t-49.5 -150v-191h250v-190h-250v-723h-223v723h-168v190h168v211q0 175 97.5 277t270.5 102
q175 0 301 -100l17 72h180v-539q0 -86 -2 -141q89 143 272 143z" />
    <glyph glyph-name="f_j" horiz-adv-x="1210" 
d="M1079 913v-933q0 -225 -96.5 -334t-331.5 -121l-28 190q137 10 185 73t48 202v733h-434v-723h-223v723h-168v190h168v197q0 190 102.5 291.5t292.5 101.5q123 0 223 -35t197 -108l-86 -154q-71 49 -138.5 73t-152.5 24q-215 0 -215 -207v-183h657z" />
    <glyph glyph-name="f_k" horiz-adv-x="1660" 
d="M1255 471l394 -459v-12h-258l-328 389v-389h-223v1229q-55 38 -107.5 56t-120.5 18q-91 0 -140.5 -49t-49.5 -150v-191h250v-190h-250v-723h-223v723h-168v190h168v211q0 175 96.5 277t271.5 102q172 0 301 -100l17 72h178v-924l303 362h252v-10z" />
    <glyph glyph-name="uni0414.loclBGR" horiz-adv-x="1529" 
d="M1354 217h155v-528h-227v311h-1034v-311h-228v528h156l539 1178h100zM721 879l-297 -672h678l-293 672q-29 67 -45 127q-13 -57 -43 -127z" />
    <glyph glyph-name="uni041B.loclBGR" horiz-adv-x="1411" 
d="M743 1401l658 -1395v-6h-258l-373 815q-43 93 -63 182q-22 -84 -66 -180l-373 -817h-258v4l660 1397h73z" />
    <glyph glyph-name="uni0424.loclBGR" horiz-adv-x="1820" 
d="M1726 702q0 -149 -47.5 -277.5t-135.5 -225t-220.5 -154.5t-294.5 -65v-211h-235v213q-206 9 -365.5 102.5t-246.5 252.5t-87 359q0 198 82.5 356.5t242.5 255.5t374 107v213h235v-213q205 -9 364.5 -102.5t246.5 -252.5t87 -358zM1022 195q215 12 336 151.5t121 355.5
q0 135 -54.5 245.5t-159.5 179t-243 75.5v-1007zM342 696q0 -135 54.5 -246t159.5 -179.5t243 -75.5v1005q-212 -12 -334.5 -152t-122.5 -352z" />
    <glyph glyph-name="uni0414.ss02" horiz-adv-x="1529" 
d="M1354 217h155v-528h-227v311h-1034v-311h-228v528h156l539 1178h100zM721 879l-297 -672h678l-293 672q-29 67 -45 127q-13 -57 -43 -127z" />
    <glyph glyph-name="uni041B.ss02" horiz-adv-x="1411" 
d="M743 1401l658 -1395v-6h-258l-373 815q-43 93 -63 182q-22 -84 -66 -180l-373 -817h-258v4l660 1397h73z" />
    <glyph glyph-name="uni0424.ss02" horiz-adv-x="1820" 
d="M1726 702q0 -149 -47.5 -277.5t-135.5 -225t-220.5 -154.5t-294.5 -65v-211h-235v213q-206 9 -365.5 102.5t-246.5 252.5t-87 359q0 198 82.5 356.5t242.5 255.5t374 107v213h235v-213q205 -9 364.5 -102.5t246.5 -252.5t87 -358zM1022 195q215 12 336 151.5t121 355.5
q0 135 -54.5 245.5t-159.5 179t-243 75.5v-1007zM342 696q0 -135 54.5 -246t159.5 -179.5t243 -75.5v1005q-212 -12 -334.5 -152t-122.5 -352z" />
    <glyph glyph-name="uni0414.ss03" horiz-adv-x="1529" 
d="M1354 217h155v-528h-227v311h-1034v-311h-228v528h156l539 1178h100zM721 879l-297 -672h678l-293 672q-29 67 -45 127q-13 -57 -43 -127z" />
    <glyph glyph-name="uni041B.ss03" horiz-adv-x="1411" 
d="M743 1401l658 -1395v-6h-258l-373 815q-43 93 -63 182q-22 -84 -66 -180l-373 -817h-258v4l660 1397h73z" />
    <glyph glyph-name="uni0424.ss03" horiz-adv-x="1820" 
d="M1726 702q0 -149 -47.5 -277.5t-135.5 -225t-220.5 -154.5t-294.5 -65v-211h-235v213q-206 9 -365.5 102.5t-246.5 252.5t-87 359q0 198 82.5 356.5t242.5 255.5t374 107v213h235v-213q205 -9 364.5 -102.5t246.5 -252.5t87 -358zM1022 195q215 12 336 151.5t121 355.5
q0 135 -54.5 245.5t-159.5 179t-243 75.5v-1007zM342 696q0 -135 54.5 -246t159.5 -179.5t243 -75.5v1005q-212 -12 -334.5 -152t-122.5 -352z" />
    <glyph glyph-name="uni0432.loclBGR" horiz-adv-x="1132" 
d="M788 788q125 -36 198 -134t73 -236q0 -199 -132.5 -321t-351.5 -122q-213 0 -337.5 145.5t-124.5 432.5v266q0 319 135.5 477t369.5 158q168 0 268.5 -90t100.5 -238q0 -212 -199 -338zM604 1255q-120 0 -190 -101.5t-70 -287.5v-90l162 49q256 79 256 275
q0 72 -41.5 113.5t-116.5 41.5zM584 176q111 0 176 67.5t65 182.5q0 101 -56.5 165t-150.5 64q-66 0 -131 -20l-143 -45v-74q0 -340 240 -340z" />
    <glyph glyph-name="uni0433.loclBGR" horiz-adv-x="815" 
d="M399 -25q-151 0 -244.5 66t-93.5 197q0 109 71 182.5t210 120.5q93 32 129.5 60t36.5 67q0 41 -34 62.5t-83 21.5q-102 0 -221 -66l-72 156q149 88 320 88q136 0 221.5 -68t85.5 -188q0 -107 -61.5 -171.5t-210.5 -117.5q-80 -28 -119 -57.5t-39 -77.5t37 -70t96 -22
q122 0 244 80l82 -162q-164 -101 -355 -101z" />
    <glyph glyph-name="uni0434.loclBGR" horiz-adv-x="1171" 
d="M893 913h147v-950q0 -213 -130.5 -325.5t-348.5 -112.5q-243 0 -414 139l86 168q131 -106 310 -106q128 0 200 59t72 174q0 48 4 150q-119 -125 -303 -125q-195 0 -316.5 132.5t-121.5 342.5t121 343.5t313 133.5q104 0 191 -39.5t145 -116.5zM561 176q125 0 194.5 78.5
t69.5 204.5q0 125 -69 203.5t-193 78.5q-120 0 -189 -77.5t-69 -204.5q0 -126 69.5 -204.5t186.5 -78.5z" />
    <glyph glyph-name="uni0436.loclBGR" horiz-adv-x="1347" 
d="M979 473l356 -463v-10h-250l-301 406v-406h-221v406l-303 -406h-248v10l353 461l-320 436v6h250l268 -383l-2 902h223v-902l267 383h249v-6z" />
    <glyph glyph-name="uni0437.loclBGR" horiz-adv-x="843" 
d="M342 -475q-214 0 -367 106l78 174q122 -81 271 -81q127 0 196.5 59.5t69.5 163.5q0 102 -66.5 160.5t-185.5 58.5h-141v184h129q95 0 152 55.5t57 143.5q0 87 -54.5 133.5t-152.5 46.5q-111 0 -226 -59l-69 170q166 90 325 90q183 0 289.5 -95.5t106.5 -259.5
q0 -97 -44 -176t-124 -129q104 -34 167.5 -127t63.5 -215q0 -187 -126.5 -295t-348.5 -108z" />
    <glyph glyph-name="uni0438.loclBGR" horiz-adv-x="1071" 
d="M717 913h223v-913h-156l-45 141q-47 -75 -121 -117t-169 -42q-162 0 -246 96.5t-84 269.5v565h225v-544q0 -187 160 -187q100 0 156.5 74t56.5 184v473z" />
    <glyph glyph-name="uni0439.loclBGR" horiz-adv-x="1071" 
d="M532 1073q-99 0 -177 46t-122 130l121 90q31 -52 78.5 -79t99.5 -27t99 27t78 79l122 -88q-44 -85 -122.5 -131.5t-176.5 -46.5zM717 913h223v-913h-156l-45 141q-47 -75 -121 -117t-169 -42q-162 0 -246 96.5t-84 269.5v565h225v-544q0 -187 160 -187q100 0 156.5 74
t56.5 184v473z" />
    <glyph glyph-name="uni045D.loclBGR" horiz-adv-x="1077" 
d="M616 1083l-327 207l127 148l293 -250zM717 913h223v-913h-156l-45 141q-47 -75 -121 -117t-169 -42q-162 0 -246 96.5t-84 269.5v565h225v-544q0 -187 160 -187q100 0 156.5 74t56.5 184v473z" />
    <glyph glyph-name="uni043A.loclBGR" horiz-adv-x="952" 
d="M547 471l393 -463v-8h-256l-330 389v-389h-223v1432h223v-881l303 362h252v-8z" />
    <glyph glyph-name="uni043B.loclBGR" horiz-adv-x="983" 
d="M543 920l426 -916v-4h-246l-176 410q-48 141 -55 168q-12 -52 -56 -168l-174 -410h-246v4l424 916h103z" />
    <glyph glyph-name="uni043F.loclBGR" horiz-adv-x="1077" 
d="M635 938q156 0 238.5 -95.5t82.5 -271.5v-571h-223v551q0 186 -155 186q-102 0 -163 -66t-61 -169v-502h-223v913h152l45 -143q108 168 307 168z" />
    <glyph glyph-name="uni0442.loclBGR" horiz-adv-x="1622" 
d="M1190 938q149 0 231 -93.5t82 -256.5v-588h-223v563q0 82 -39.5 128t-107.5 46q-99 0 -152 -73.5t-53 -174.5v-489h-221v565q0 74 -39 123t-111 49q-98 0 -150.5 -73.5t-52.5 -174.5v-489h-223v913h152l45 -145q95 170 290 170q97 0 168 -43t107 -119q46 76 121.5 119
t175.5 43z" />
    <glyph glyph-name="uni0446.loclBGR" horiz-adv-x="1112" 
d="M1040 193h31v-426h-203v247q-98 32 -123 129q-100 -161 -301 -161q-156 0 -240.5 97t-84.5 261v573h225v-557q0 -80 39 -127t119 -47q104 0 159.5 74.5t55.5 185.5v471h225v-634q0 -46 23 -66t75 -20z" />
    <glyph glyph-name="uni0448.loclBGR" horiz-adv-x="1617" 
d="M1264 913h223v-913h-154l-47 145q-44 -73 -119.5 -117t-167.5 -44q-95 0 -165.5 42.5t-106.5 118.5q-97 -161 -291 -161q-151 0 -234 93t-83 255v581h225v-561q0 -79 39.5 -123.5t108.5 -44.5q96 0 148 75.5t52 178.5v475h223v-563q0 -71 39 -118.5t109 -47.5
q96 0 148.5 75.5t52.5 178.5v475z" />
    <glyph glyph-name="uni0449.loclBGR" horiz-adv-x="1658" 
d="M1589 193h29v-426h-203v249q-96 31 -123 127q-103 -159 -286 -159q-198 0 -279 161q-94 -161 -291 -161q-152 0 -234.5 93.5t-82.5 252.5v583h225v-563q0 -75 38 -120.5t107 -45.5q98 0 150.5 75.5t52.5 178.5v475h223v-563q0 -72 38 -119t108 -47q98 0 150.5 75.5
t52.5 178.5v475h223v-632q0 -47 24 -67.5t78 -20.5z" />
    <glyph glyph-name="uni044C.loclBGR" horiz-adv-x="976" 
d="M569 688q162 0 258.5 -94.5t96.5 -253.5q0 -167 -108.5 -265t-293.5 -98q-189 0 -296 99t-107 272v565h223v-297q90 72 227 72zM524 160q82 0 130 46.5t48 129.5q0 79 -48 124.5t-130 45.5q-88 0 -138 -45t-50 -123q0 -86 49 -132t139 -46z" />
    <glyph glyph-name="uni044A.loclBGR" horiz-adv-x="1103" 
d="M696 690q159 0 257 -94.5t98 -257.5q0 -169 -109.5 -265t-292.5 -96q-187 0 -295 99t-108 270v375h-228v192h451v-295q90 72 227 72zM653 160q78 0 127 47t49 131q0 80 -49 125t-127 45q-85 0 -135.5 -43t-50.5 -127q0 -85 49.5 -131.5t136.5 -46.5z" />
    <glyph glyph-name="uni044B.loclBGR" horiz-adv-x="1439" 
d="M569 688q162 0 258.5 -94.5t96.5 -253.5q0 -167 -108.5 -265t-293.5 -98q-189 0 -296 99t-107 272v565h223v-297q90 72 227 72zM1085 0v913h224v-913h-224zM524 160q82 0 130 46.5t48 129.5q0 79 -48 124.5t-130 45.5q-88 0 -138 -45t-50 -123q0 -86 49 -132t139 -46z
" />
    <glyph glyph-name="uni0430.ss01" horiz-adv-x="1171" 
d="M877 913h163v-913h-166l-30 129q-121 -152 -330 -152q-192 0 -314 132t-122 348q0 212 123 345.5t317 133.5q201 0 322 -154zM561 172q119 0 191.5 77t72.5 208q0 130 -72.5 206t-191.5 76q-115 0 -186.5 -76.5t-71.5 -205.5q0 -131 71.5 -208t186.5 -77z" />
    <glyph glyph-name="uni0435.ss01" horiz-adv-x="991" 
d="M588 156q140 0 248 88l86 -148q-151 -123 -361 -123q-220 0 -353.5 135.5t-133.5 348.5q0 132 55.5 240.5t165 174.5t252.5 66q172 0 277.5 -89t105.5 -228q0 -132 -102.5 -200.5t-284.5 -68.5q-116 0 -240 15q24 -101 100.5 -156t184.5 -55zM551 760
q-104 0 -170.5 -63.5t-83.5 -176.5q92 -12 213 -12q110 0 163.5 26.5t53.5 90.5q0 59 -49 97t-127 38z" />
    <glyph glyph-name="uni0443.ss01" horiz-adv-x="1071" 
d="M717 913h223v-960q0 -106 -35 -189t-96 -134.5t-140 -78t-171 -26.5q-231 0 -373 133l86 168q106 -100 270 -100q103 0 168.5 58.5t65.5 168.5v160q-87 -131 -273 -131q-154 0 -237.5 97t-83.5 263v571h223v-561q0 -77 40 -123.5t120 -46.5q101 0 157 73.5t56 193.5v464z
" />
    <glyph glyph-name="uni0432.ss02" horiz-adv-x="1132" 
d="M788 788q125 -36 198 -134t73 -236q0 -199 -132.5 -321t-351.5 -122q-213 0 -337.5 145.5t-124.5 432.5v266q0 319 135.5 477t369.5 158q168 0 268.5 -90t100.5 -238q0 -212 -199 -338zM604 1255q-120 0 -190 -101.5t-70 -287.5v-90l162 49q256 79 256 275
q0 72 -41.5 113.5t-116.5 41.5zM584 176q111 0 176 67.5t65 182.5q0 101 -56.5 165t-150.5 64q-66 0 -131 -20l-143 -45v-74q0 -340 240 -340z" />
    <glyph glyph-name="uni0433.ss02" horiz-adv-x="815" 
d="M399 -25q-151 0 -244.5 66t-93.5 197q0 109 71 182.5t210 120.5q93 32 129.5 60t36.5 67q0 41 -34 62.5t-83 21.5q-102 0 -221 -66l-72 156q149 88 320 88q136 0 221.5 -68t85.5 -188q0 -107 -61.5 -171.5t-210.5 -117.5q-80 -28 -119 -57.5t-39 -77.5t37 -70t96 -22
q122 0 244 80l82 -162q-164 -101 -355 -101z" />
    <glyph glyph-name="uni0434.ss02" horiz-adv-x="1171" 
d="M893 913h147v-950q0 -213 -130.5 -325.5t-348.5 -112.5q-243 0 -414 139l86 168q131 -106 310 -106q128 0 200 59t72 174q0 48 4 150q-119 -125 -303 -125q-195 0 -316.5 132.5t-121.5 342.5t121 343.5t313 133.5q104 0 191 -39.5t145 -116.5zM561 176q125 0 194.5 78.5
t69.5 204.5q0 125 -69 203.5t-193 78.5q-120 0 -189 -77.5t-69 -204.5q0 -126 69.5 -204.5t186.5 -78.5z" />
    <glyph glyph-name="uni0436.ss02" horiz-adv-x="1347" 
d="M979 473l356 -463v-10h-250l-301 406v-406h-221v406l-303 -406h-248v10l353 461l-320 436v6h250l268 -383l-2 902h223v-902l267 383h249v-6z" />
    <glyph glyph-name="uni0437.ss02" horiz-adv-x="843" 
d="M342 -475q-214 0 -367 106l78 174q122 -81 271 -81q127 0 196.5 59.5t69.5 163.5q0 102 -66.5 160.5t-185.5 58.5h-141v184h129q95 0 152 55.5t57 143.5q0 87 -54.5 133.5t-152.5 46.5q-111 0 -226 -59l-69 170q166 90 325 90q183 0 289.5 -95.5t106.5 -259.5
q0 -97 -44 -176t-124 -129q104 -34 167.5 -127t63.5 -215q0 -187 -126.5 -295t-348.5 -108z" />
    <glyph glyph-name="uni0438.ss02" horiz-adv-x="1071" 
d="M717 913h223v-913h-156l-45 141q-47 -75 -121 -117t-169 -42q-162 0 -246 96.5t-84 269.5v565h225v-544q0 -187 160 -187q100 0 156.5 74t56.5 184v473z" />
    <glyph glyph-name="uni0439.ss02" horiz-adv-x="1071" 
d="M532 1073q-99 0 -177 46t-122 130l121 90q31 -52 78.5 -79t99.5 -27t99 27t78 79l122 -88q-44 -85 -122.5 -131.5t-176.5 -46.5zM717 913h223v-913h-156l-45 141q-47 -75 -121 -117t-169 -42q-162 0 -246 96.5t-84 269.5v565h225v-544q0 -187 160 -187q100 0 156.5 74
t56.5 184v473z" />
    <glyph glyph-name="uni045D.ss02" horiz-adv-x="1071" 
d="M635 1067l-328 207l127 147l293 -250zM717 913h223v-913h-156l-45 141q-47 -75 -121 -117t-169 -42q-162 0 -246 96.5t-84 269.5v565h225v-544q0 -187 160 -187q100 0 156.5 74t56.5 184v473z" />
    <glyph glyph-name="uni043A.ss02" horiz-adv-x="952" 
d="M547 471l393 -463v-8h-256l-330 389v-389h-223v1432h223v-881l303 362h252v-8z" />
    <glyph glyph-name="uni043B.ss02" horiz-adv-x="983" 
d="M543 920l426 -916v-4h-246l-176 410q-48 141 -55 168q-12 -52 -56 -168l-174 -410h-246v4l424 916h103z" />
    <glyph glyph-name="uni043F.ss02" horiz-adv-x="1077" 
d="M635 938q156 0 238.5 -95.5t82.5 -271.5v-571h-223v551q0 186 -155 186q-102 0 -163 -66t-61 -169v-502h-223v913h152l45 -143q108 168 307 168z" />
    <glyph glyph-name="uni0442.ss02" horiz-adv-x="1622" 
d="M1190 938q149 0 231 -93.5t82 -256.5v-588h-223v563q0 82 -39.5 128t-107.5 46q-99 0 -152 -73.5t-53 -174.5v-489h-221v565q0 74 -39 123t-111 49q-98 0 -150.5 -73.5t-52.5 -174.5v-489h-223v913h152l45 -145q95 170 290 170q97 0 168 -43t107 -119q46 76 121.5 119
t175.5 43z" />
    <glyph glyph-name="uni0446.ss02" horiz-adv-x="1112" 
d="M1040 193h31v-426h-203v247q-98 32 -123 129q-100 -161 -301 -161q-156 0 -240.5 97t-84.5 261v573h225v-557q0 -80 39 -127t119 -47q104 0 159.5 74.5t55.5 185.5v471h225v-634q0 -46 23 -66t75 -20z" />
    <glyph glyph-name="uni0448.ss02" horiz-adv-x="1617" 
d="M1264 913h223v-913h-154l-47 145q-44 -73 -119.5 -117t-167.5 -44q-95 0 -165.5 42.5t-106.5 118.5q-97 -161 -291 -161q-151 0 -234 93t-83 255v581h225v-561q0 -79 39.5 -123.5t108.5 -44.5q96 0 148 75.5t52 178.5v475h223v-563q0 -71 39 -118.5t109 -47.5
q96 0 148.5 75.5t52.5 178.5v475z" />
    <glyph glyph-name="uni0449.ss02" horiz-adv-x="1658" 
d="M1589 193h29v-426h-203v249q-96 31 -123 127q-103 -159 -286 -159q-198 0 -279 161q-94 -161 -291 -161q-152 0 -234.5 93.5t-82.5 252.5v583h225v-563q0 -75 38 -120.5t107 -45.5q98 0 150.5 75.5t52.5 178.5v475h223v-563q0 -72 38 -119t108 -47q98 0 150.5 75.5
t52.5 178.5v475h223v-632q0 -47 24 -67.5t78 -20.5z" />
    <glyph glyph-name="uni044C.ss02" horiz-adv-x="989" 
d="M582 688q162 0 258 -94.5t96 -253.5q0 -167 -108 -265t-293 -98q-189 0 -296.5 99t-107.5 272v565h223v-297q90 72 228 72zM537 160q82 0 130 46.5t48 129.5q0 79 -48 124.5t-130 45.5q-88 0 -138.5 -45t-50.5 -123q0 -86 49.5 -132t139.5 -46z" />
    <glyph glyph-name="uni044A.ss02" horiz-adv-x="1103" 
d="M696 690q159 0 257 -94.5t98 -257.5q0 -169 -109.5 -265t-292.5 -96q-187 0 -295 99t-108 270v375h-228v192h451v-295q90 72 227 72zM653 160q78 0 127 47t49 131q0 80 -49 125t-127 45q-85 0 -135.5 -43t-50.5 -127q0 -85 49.5 -131.5t136.5 -46.5z" />
    <glyph glyph-name="uni044B.ss02" horiz-adv-x="1439" 
d="M569 688q162 0 258.5 -94.5t96.5 -253.5q0 -167 -108.5 -265t-293.5 -98q-189 0 -296 99t-107 272v565h223v-297q90 72 227 72zM1085 0v913h224v-913h-224zM524 160q82 0 130 46.5t48 129.5q0 79 -48 124.5t-130 45.5q-88 0 -138 -45t-50 -123q0 -86 49 -132t139 -46z
" />
    <glyph glyph-name="uni0430.ss03" horiz-adv-x="1171" 
d="M877 913h163v-913h-166l-30 129q-121 -152 -330 -152q-192 0 -314 132t-122 348q0 212 123 345.5t317 133.5q201 0 322 -154zM561 172q119 0 191.5 77t72.5 208q0 130 -72.5 206t-191.5 76q-115 0 -186.5 -76.5t-71.5 -205.5q0 -131 71.5 -208t186.5 -77z" />
    <glyph glyph-name="uni0432.ss03" horiz-adv-x="1132" 
d="M788 788q125 -36 198 -134t73 -236q0 -199 -132.5 -321t-351.5 -122q-213 0 -337.5 145.5t-124.5 432.5v266q0 319 135.5 477t369.5 158q168 0 268.5 -90t100.5 -238q0 -212 -199 -338zM604 1255q-120 0 -190 -101.5t-70 -287.5v-90l162 49q256 79 256 275
q0 72 -41.5 113.5t-116.5 41.5zM584 176q111 0 176 67.5t65 182.5q0 101 -56.5 165t-150.5 64q-66 0 -131 -20l-143 -45v-74q0 -340 240 -340z" />
    <glyph glyph-name="uni0433.ss03" horiz-adv-x="815" 
d="M399 -25q-151 0 -244.5 66t-93.5 197q0 109 71 182.5t210 120.5q93 32 129.5 60t36.5 67q0 41 -34 62.5t-83 21.5q-102 0 -221 -66l-72 156q149 88 320 88q136 0 221.5 -68t85.5 -188q0 -107 -61.5 -171.5t-210.5 -117.5q-80 -28 -119 -57.5t-39 -77.5t37 -70t96 -22
q122 0 244 80l82 -162q-164 -101 -355 -101z" />
    <glyph glyph-name="uni0434.ss03" horiz-adv-x="1171" 
d="M893 913h147v-950q0 -213 -130.5 -325.5t-348.5 -112.5q-243 0 -414 139l86 168q131 -106 310 -106q128 0 200 59t72 174q0 48 4 150q-119 -125 -303 -125q-195 0 -316.5 132.5t-121.5 342.5t121 343.5t313 133.5q104 0 191 -39.5t145 -116.5zM561 176q125 0 194.5 78.5
t69.5 204.5q0 125 -69 203.5t-193 78.5q-120 0 -189 -77.5t-69 -204.5q0 -126 69.5 -204.5t186.5 -78.5z" />
    <glyph glyph-name="uni0435.ss03" horiz-adv-x="991" 
d="M588 156q140 0 248 88l86 -148q-151 -123 -361 -123q-220 0 -353.5 135.5t-133.5 348.5q0 132 55.5 240.5t165 174.5t252.5 66q172 0 277.5 -89t105.5 -228q0 -132 -102.5 -200.5t-284.5 -68.5q-116 0 -240 15q24 -101 100.5 -156t184.5 -55zM551 760
q-104 0 -170.5 -63.5t-83.5 -176.5q92 -12 213 -12q110 0 163.5 26.5t53.5 90.5q0 59 -49 97t-127 38z" />
    <glyph glyph-name="uni0436.ss03" horiz-adv-x="1347" 
d="M979 473l356 -463v-10h-250l-301 406v-406h-221v406l-303 -406h-248v10l353 461l-320 436v6h250l268 -383l-2 902h223v-902l267 383h249v-6z" />
    <glyph glyph-name="uni0437.ss03" horiz-adv-x="843" 
d="M342 -475q-214 0 -367 106l78 174q122 -81 271 -81q127 0 196.5 59.5t69.5 163.5q0 102 -66.5 160.5t-185.5 58.5h-141v184h129q95 0 152 55.5t57 143.5q0 87 -54.5 133.5t-152.5 46.5q-111 0 -226 -59l-69 170q166 90 325 90q183 0 289.5 -95.5t106.5 -259.5
q0 -97 -44 -176t-124 -129q104 -34 167.5 -127t63.5 -215q0 -187 -126.5 -295t-348.5 -108z" />
    <glyph glyph-name="uni0438.ss03" horiz-adv-x="1071" 
d="M717 913h223v-913h-156l-45 141q-47 -75 -121 -117t-169 -42q-162 0 -246 96.5t-84 269.5v565h225v-544q0 -187 160 -187q100 0 156.5 74t56.5 184v473z" />
    <glyph glyph-name="uni0439.ss03" horiz-adv-x="1071" 
d="M532 1073q-99 0 -177 46t-122 130l121 90q31 -52 78.5 -79t99.5 -27t99 27t78 79l122 -88q-44 -85 -122.5 -131.5t-176.5 -46.5zM717 913h223v-913h-156l-45 141q-47 -75 -121 -117t-169 -42q-162 0 -246 96.5t-84 269.5v565h225v-544q0 -187 160 -187q100 0 156.5 74
t56.5 184v473z" />
    <glyph glyph-name="uni045D.ss03" horiz-adv-x="1077" 
d="M616 1083l-327 207l127 148l293 -250zM717 913h223v-913h-156l-45 141q-47 -75 -121 -117t-169 -42q-162 0 -246 96.5t-84 269.5v565h225v-544q0 -187 160 -187q100 0 156.5 74t56.5 184v473z" />
    <glyph glyph-name="uni043A.ss03" horiz-adv-x="952" 
d="M547 471l393 -463v-8h-256l-330 389v-389h-223v1432h223v-881l303 362h252v-8z" />
    <glyph glyph-name="uni043B.ss03" horiz-adv-x="983" 
d="M543 920l426 -916v-4h-246l-176 410q-48 141 -55 168q-12 -52 -56 -168l-174 -410h-246v4l424 916h103z" />
    <glyph glyph-name="uni043F.ss03" horiz-adv-x="1077" 
d="M635 938q156 0 238.5 -95.5t82.5 -271.5v-571h-223v551q0 186 -155 186q-102 0 -163 -66t-61 -169v-502h-223v913h152l45 -143q108 168 307 168z" />
    <glyph glyph-name="uni0442.ss03" horiz-adv-x="1622" 
d="M1190 938q149 0 231 -93.5t82 -256.5v-588h-223v563q0 82 -39.5 128t-107.5 46q-99 0 -152 -73.5t-53 -174.5v-489h-221v565q0 74 -39 123t-111 49q-98 0 -150.5 -73.5t-52.5 -174.5v-489h-223v913h152l45 -145q95 170 290 170q97 0 168 -43t107 -119q46 76 121.5 119
t175.5 43z" />
    <glyph glyph-name="uni0443.ss03" horiz-adv-x="1071" 
d="M717 913h223v-960q0 -106 -35 -189t-96 -134.5t-140 -78t-171 -26.5q-231 0 -373 133l86 168q106 -100 270 -100q103 0 168.5 58.5t65.5 168.5v160q-87 -131 -273 -131q-154 0 -237.5 97t-83.5 263v571h223v-561q0 -77 40 -123.5t120 -46.5q101 0 157 73.5t56 193.5v464z
" />
    <glyph glyph-name="uni0446.ss03" horiz-adv-x="1112" 
d="M1040 193h31v-426h-203v247q-98 32 -123 129q-100 -161 -301 -161q-156 0 -240.5 97t-84.5 261v573h225v-557q0 -80 39 -127t119 -47q104 0 159.5 74.5t55.5 185.5v471h225v-634q0 -46 23 -66t75 -20z" />
    <glyph glyph-name="uni0448.ss03" horiz-adv-x="1617" 
d="M1264 913h223v-913h-154l-47 145q-44 -73 -119.5 -117t-167.5 -44q-95 0 -165.5 42.5t-106.5 118.5q-97 -161 -291 -161q-151 0 -234 93t-83 255v581h225v-561q0 -79 39.5 -123.5t108.5 -44.5q96 0 148 75.5t52 178.5v475h223v-563q0 -71 39 -118.5t109 -47.5
q96 0 148.5 75.5t52.5 178.5v475z" />
    <glyph glyph-name="uni0449.ss03" horiz-adv-x="1658" 
d="M1589 193h29v-426h-203v249q-96 31 -123 127q-103 -159 -286 -159q-198 0 -279 161q-94 -161 -291 -161q-152 0 -234.5 93.5t-82.5 252.5v583h225v-563q0 -75 38 -120.5t107 -45.5q98 0 150.5 75.5t52.5 178.5v475h223v-563q0 -72 38 -119t108 -47q98 0 150.5 75.5
t52.5 178.5v475h223v-632q0 -47 24 -67.5t78 -20.5z" />
    <glyph glyph-name="uni044C.ss03" horiz-adv-x="989" 
d="M582 688q162 0 258 -94.5t96 -253.5q0 -167 -108 -265t-293 -98q-189 0 -296.5 99t-107.5 272v565h223v-297q90 72 228 72zM537 160q82 0 130 46.5t48 129.5q0 79 -48 124.5t-130 45.5q-88 0 -138.5 -45t-50.5 -123q0 -86 49.5 -132t139.5 -46z" />
    <glyph glyph-name="uni044A.ss03" horiz-adv-x="1103" 
d="M696 690q159 0 257 -94.5t98 -257.5q0 -169 -109.5 -265t-292.5 -96q-187 0 -295 99t-108 270v375h-228v192h451v-295q90 72 227 72zM653 160q78 0 127 47t49 131q0 80 -49 125t-127 45q-85 0 -135.5 -43t-50.5 -127q0 -85 49.5 -131.5t136.5 -46.5z" />
    <glyph glyph-name="uni044B.ss03" horiz-adv-x="1439" 
d="M569 688q162 0 258.5 -94.5t96.5 -253.5q0 -167 -108.5 -265t-293.5 -98q-189 0 -296 99t-107 272v565h223v-297q90 72 227 72zM1085 0v913h224v-913h-224zM524 160q82 0 130 46.5t48 129.5q0 79 -48 124.5t-130 45.5q-88 0 -138 -45t-50 -123q0 -86 49 -132t139 -46z
" />
    <glyph glyph-name="zero.sinf" horiz-adv-x="643" 
d="M322 -145q-63 0 -110.5 28t-74 74.5t-39 99.5t-12.5 111q0 57 12.5 109.5t39 99t74 74.5t110.5 28q62 0 109 -28t73 -74.5t38.5 -99t12.5 -109.5q0 -58 -12.5 -111t-38.5 -99.5t-73 -74.5t-109 -28zM322 -16q98 0 98 184q0 77 -22.5 129.5t-75.5 52.5q-99 0 -99 -182
q0 -184 99 -184z" />
    <glyph glyph-name="one.sinf" horiz-adv-x="464" 
d="M207 -123v367l-78 -68l-78 84l213 203h74v-586h-131z" />
    <glyph glyph-name="two.sinf" horiz-adv-x="583" 
d="M311 -4h197v-119h-416v55l217 265q43 58 43 96q0 63 -65 63q-51 0 -88 -75l-103 51q24 73 76.5 110t122.5 37q87 0 139.5 -51.5t52.5 -126.5q0 -82 -69 -172z" />
    <glyph glyph-name="three.sinf" horiz-adv-x="589" 
d="M289 -145q-126 0 -205 73l70 92q46 -43 120 -43q43 0 68 20.5t25 55.5q0 72 -95 72h-65v104h53q36 0 58 17t22 49q0 28 -20.5 43.5t-49.5 15.5q-51 0 -94 -32l-74 88q76 67 189 67q76 0 129 -45.5t53 -114.5q0 -44 -21.5 -80t-58.5 -51q45 -13 78 -53.5t33 -93.5
q0 -83 -59 -133.5t-156 -50.5z" />
    <glyph glyph-name="four.sinf" horiz-adv-x="622" 
d="M340 -123v94h-270v60l327 432h64v-387h69v-105h-69v-94h-121zM236 76h104v141z" />
    <glyph glyph-name="five.sinf" horiz-adv-x="583" 
d="M281 -145q-117 0 -193 73l74 90q43 -43 106 -43q41 0 65.5 23.5t24.5 62.5q0 43 -31.5 66t-86.5 23q-44 0 -97 -15l-12 12l37 310h301v-121h-195l-10 -96q6 0 17 1t16 1q83 0 141 -48.5t58 -136.5q0 -92 -59.5 -147t-155.5 -55z" />
    <glyph glyph-name="six.sinf" horiz-adv-x="600" 
d="M336 240q75 0 125.5 -50t50.5 -137t-56 -142.5t-149 -55.5q-107 0 -163 70.5t-56 178.5v19q0 153 87.5 250t252.5 98l21 -117q-93 3 -146.5 -33.5t-73.5 -117.5q43 37 107 37zM307 -35q36 0 57 23t21 59q0 40 -22.5 61t-59.5 21q-34 0 -56 -22t-22 -60q0 -35 21.5 -58.5
t60.5 -23.5z" />
    <glyph glyph-name="seven.sinf" horiz-adv-x="563" 
d="M119 -123l184 459h-215v121h389v-27l-219 -553h-139z" />
    <glyph glyph-name="eight.sinf" horiz-adv-x="610" 
d="M305 -145q-99 0 -159 48t-60 138q0 46 24.5 84.5t67.5 60.5q-65 49 -65 129q0 75 54 119.5t138 44.5t137.5 -44t53.5 -118q0 -84 -68 -129q45 -23 69.5 -62t24.5 -85q0 -90 -59.5 -138t-157.5 -48zM305 238q27 0 44.5 18t17.5 45q0 29 -17 47.5t-45 18.5t-45.5 -18.5
t-17.5 -47.5q0 -28 17.5 -45.5t45.5 -17.5zM305 -31q37 0 60.5 22.5t23.5 59.5t-24.5 60.5t-61.5 23.5q-38 0 -61 -23.5t-23 -60.5t24 -59.5t62 -22.5z" />
    <glyph glyph-name="nine.sinf" horiz-adv-x="598" 
d="M291 479q107 0 164 -71t57 -179v-18q0 -153 -87.5 -250t-252.5 -98l-20 117q92 -3 145.5 34t73.5 119q-42 -39 -107 -39q-77 0 -127.5 49.5t-50.5 137.5q0 87 56.5 142.5t148.5 55.5zM295 205q36 0 58 22t22 60q0 35 -21.5 58.5t-60.5 23.5q-37 0 -57.5 -23t-20.5 -59
q0 -40 21.5 -61t58.5 -21z" />
    <glyph glyph-name="zero.tf" horiz-adv-x="1124" 
d="M561 -25q-233 0 -369.5 190t-136.5 513q0 321 136.5 510.5t369.5 189.5q234 0 371 -189t137 -511q0 -323 -137 -513t-371 -190zM561 186q127 0 196.5 133t69.5 359q0 224 -69.5 357.5t-196.5 133.5q-125 0 -194.5 -133.5t-69.5 -357.5q0 -225 69.5 -358.5t194.5 -133.5z
" />
    <glyph glyph-name="one.tf" horiz-adv-x="1124" 
d="M741 205h293v-205h-860v205h328v704q0 79 8 152q-40 -30 -84 -57l-262 -162l-107 174l537 352h147v-1163z" />
    <glyph glyph-name="two.tf" horiz-adv-x="1124" 
d="M580 207h399v-207h-887v96l510 639q64 80 90.5 136.5t26.5 109.5q0 79 -49.5 128.5t-139.5 49.5q-84 0 -145.5 -39t-114.5 -114l-159 122q158 250 440 250q189 0 300.5 -104.5t111.5 -265.5q0 -101 -37.5 -190.5t-139.5 -213.5l-245 -307q-41 -50 -80 -92q39 2 119 2z
" />
    <glyph glyph-name="three.tf" horiz-adv-x="1124" 
d="M524 -25q-280 0 -450 170l127 162q115 -121 309 -121q115 0 187.5 60t72.5 155q0 205 -293 205h-145v197h133q122 0 183 57t61 137q0 76 -59 125t-152 49q-78 0 -148.5 -32.5t-120.5 -89.5l-118 153q167 176 407 176q188 0 307 -103.5t119 -264.5q0 -85 -50.5 -164.5
t-139.5 -122.5q125 -38 191.5 -132t66.5 -210q0 -180 -137 -293t-351 -113z" />
    <glyph glyph-name="four.tf" horiz-adv-x="1124" 
d="M907 451h148v-195h-148v-256h-223v256h-635v125l725 987h133v-917zM688 451v340q0 100 4 155q-44 -66 -80 -112l-206 -287q-43 -60 -76 -98q47 2 135 2h223z" />
    <glyph glyph-name="five.tf" horiz-adv-x="1124" 
d="M522 844q221 0 358.5 -111.5t137.5 -304.5q0 -200 -138.5 -325.5t-367.5 -125.5q-135 0 -241 41t-195 129l125 168q111 -120 293 -120q127 0 204.5 66t77.5 169q0 115 -85.5 172t-227.5 57q-122 0 -262 -38l-29 22l78 711h708v-207h-516l-30 -309q55 6 110 6z" />
    <glyph glyph-name="six.tf" horiz-adv-x="1124" 
d="M623 844q88 0 165 -27.5t135.5 -79t92 -132t33.5 -179.5q0 -201 -126.5 -326t-334.5 -125q-122 0 -215.5 40.5t-151 114t-86.5 169.5t-29 213v23q0 178 44 323t134 257t237.5 180t344.5 83l31 -198q-237 -18 -374.5 -130.5t-172.5 -301.5q99 96 273 96zM584 186
q103 0 169 64t66 170q0 109 -66.5 169t-168.5 60q-108 0 -174 -62t-66 -169q0 -104 67 -168t173 -64z" />
    <glyph glyph-name="seven.tf" horiz-adv-x="1124" 
d="M70 1354h968v-88l-526 -1266h-246l420 1004l62 145q-24 0 -74 -1t-76 -1h-528v207z" />
    <glyph glyph-name="eight.tf" horiz-adv-x="1124" 
d="M563 -23q-223 0 -354 108t-131 292q0 120 67.5 212.5t182.5 127.5q-93 32 -150 108.5t-57 186.5q0 163 122.5 264.5t321.5 101.5q197 0 318 -101.5t121 -264.5q0 -105 -56 -181t-145 -114q106 -36 175 -129.5t69 -212.5q0 -184 -131 -291t-353 -107zM565 813
q96 0 152.5 52t56.5 136q0 80 -58 130.5t-151 50.5q-95 0 -155 -50.5t-60 -130.5q0 -86 58 -137t157 -51zM561 184q108 0 177 55.5t69 155.5q0 101 -66.5 161t-181.5 60q-108 0 -175 -62t-67 -159q0 -98 70 -154.5t174 -56.5z" />
    <glyph glyph-name="nine.tf" horiz-adv-x="1124" 
d="M532 1378q123 0 217 -40.5t151 -113.5t85.5 -168.5t28.5 -211.5v-23q0 -178 -44 -323t-134 -257.5t-237 -181t-343 -84.5l-35 201q239 17 378.5 130.5t174.5 303.5q-100 -100 -276 -100q-87 0 -164 28t-135.5 79.5t-92.5 132.5t-34 180q0 199 127 323.5t333 124.5z
M537 705q107 0 174 63t67 170q0 103 -67 166t-174 63q-102 0 -168 -64t-66 -169q0 -110 66 -169.5t168 -59.5z" />
    <glyph glyph-name="zero.dnom" horiz-adv-x="643" 
d="M322 -23q-63 0 -110.5 28t-74 75t-39 100t-12.5 111q0 57 12.5 109.5t39 99t74 74.5t110.5 28q62 0 109 -28t73 -74.5t38.5 -99t12.5 -109.5q0 -58 -12.5 -111t-38.5 -100t-73 -75t-109 -28zM322 106q98 0 98 185q0 77 -22.5 129.5t-75.5 52.5q-99 0 -99 -182
q0 -185 99 -185z" />
    <glyph glyph-name="one.dnom" horiz-adv-x="464" 
d="M207 0v367l-78 -68l-78 84l213 203h74v-586h-131z" />
    <glyph glyph-name="two.dnom" horiz-adv-x="583" 
d="M311 119h197v-119h-416v55l217 264q43 58 43 97q0 63 -65 63q-51 0 -88 -76l-103 52q24 73 76.5 110t122.5 37q87 0 139.5 -51.5t52.5 -126.5q0 -82 -69 -172z" />
    <glyph glyph-name="three.dnom" horiz-adv-x="589" 
d="M289 -23q-125 0 -205 74l70 92q46 -43 120 -43q43 0 68 20.5t25 55.5q0 72 -95 72h-65v104h53q36 0 58 17t22 49q0 28 -20.5 43.5t-49.5 15.5q-49 0 -94 -33l-74 88q77 68 189 68q76 0 129 -45.5t53 -114.5q0 -44 -21.5 -80t-58.5 -51q45 -13 78 -53.5t33 -93.5
q0 -83 -59 -134t-156 -51z" />
    <glyph glyph-name="four.dnom" horiz-adv-x="622" 
d="M340 0v94h-270v60l327 432h64v-387h69v-105h-69v-94h-121zM236 199h104v141z" />
    <glyph glyph-name="five.dnom" horiz-adv-x="583" 
d="M281 -23q-116 0 -193 74l74 90q43 -43 106 -43q41 0 65.5 23.5t24.5 62.5q0 43 -31.5 65.5t-86.5 22.5q-48 0 -97 -14l-12 12l37 310h301v-121h-195l-10 -97q6 0 17 1.5t16 1.5q83 0 141 -48.5t58 -136.5q0 -92 -59.5 -147.5t-155.5 -55.5z" />
    <glyph glyph-name="six.dnom" horiz-adv-x="600" 
d="M336 362q75 0 125.5 -49.5t50.5 -136.5t-56 -143t-149 -56q-107 0 -163 71t-56 179v19q0 153 87.5 250t252.5 98l21 -117q-93 3 -146.5 -33.5t-73.5 -117.5q42 36 107 36zM307 88q36 0 57 23t21 59q0 40 -22.5 61t-59.5 21q-34 0 -56 -22t-22 -60q0 -35 21.5 -58.5
t60.5 -23.5z" />
    <glyph glyph-name="seven.dnom" horiz-adv-x="563" 
d="M119 0l184 459h-215v121h389v-27l-219 -553h-139z" />
    <glyph glyph-name="eight.dnom" horiz-adv-x="610" 
d="M305 -23q-98 0 -158.5 48.5t-60.5 138.5q0 46 24.5 84.5t67.5 60.5q-65 49 -65 129q0 75 54 119.5t138 44.5t137.5 -44t53.5 -118q0 -84 -68 -129q45 -23 69.5 -62t24.5 -85q0 -90 -59.5 -138.5t-157.5 -48.5zM305 360q27 0 44.5 18.5t17.5 45.5q0 29 -17 47t-45 18
t-45.5 -18t-17.5 -47q0 -28 17.5 -46t45.5 -18zM305 92q37 0 60.5 22.5t23.5 59.5t-24.5 60.5t-61.5 23.5q-38 0 -61 -23.5t-23 -60.5t24 -59.5t62 -22.5z" />
    <glyph glyph-name="nine.dnom" horiz-adv-x="598" 
d="M291 602q107 0 164 -71t57 -179v-18q0 -153 -87.5 -250t-252.5 -98l-20 116q92 -3 145.5 34t73.5 120q-42 -39 -107 -39q-77 0 -127.5 49t-50.5 137q0 87 57 143t148 56zM295 328q36 0 58 22t22 60q0 35 -21.5 58.5t-60.5 23.5q-37 0 -57.5 -23t-20.5 -59q0 -40 21.5 -61
t58.5 -21z" />
    <glyph glyph-name="zero.numr" horiz-adv-x="643" 
d="M322 791q-63 0 -110.5 28t-74 74.5t-39 99.5t-12.5 111q0 57 12.5 109.5t39 99t74 74.5t110.5 28q62 0 109 -28t73 -74.5t38.5 -99t12.5 -109.5q0 -58 -12.5 -111t-38.5 -99.5t-73 -74.5t-109 -28zM322 920q98 0 98 184q0 77 -22.5 129.5t-75.5 52.5q-99 0 -99 -182
q0 -184 99 -184z" />
    <glyph glyph-name="one.numr" horiz-adv-x="464" 
d="M207 813v367l-78 -68l-78 84l213 203h74v-586h-131z" />
    <glyph glyph-name="two.numr" horiz-adv-x="583" 
d="M311 932h197v-119h-416v55l217 265q43 58 43 96q0 63 -65 63q-51 0 -88 -75l-103 51q24 73 76.5 110t122.5 37q87 0 139.5 -51.5t52.5 -126.5q0 -82 -69 -172z" />
    <glyph glyph-name="three.numr" horiz-adv-x="589" 
d="M289 791q-126 0 -205 73l70 92q46 -43 120 -43q43 0 68 20.5t25 55.5q0 72 -95 72h-65v104h53q36 0 58 17t22 49q0 28 -20.5 43.5t-49.5 15.5q-49 0 -94 -33l-74 89q76 67 189 67q76 0 129 -45.5t53 -114.5q0 -44 -21.5 -80t-58.5 -51q45 -13 78 -53.5t33 -93.5
q0 -83 -59 -133.5t-156 -50.5z" />
    <glyph glyph-name="four.numr" horiz-adv-x="622" 
d="M340 813v94h-270v60l327 432h64v-387h69v-105h-69v-94h-121zM236 1012h104v141z" />
    <glyph glyph-name="five.numr" horiz-adv-x="583" 
d="M281 791q-117 0 -193 73l74 90q43 -43 106 -43q41 0 65.5 23.5t24.5 62.5q0 43 -31.5 65.5t-86.5 22.5q-48 0 -97 -14l-12 12l37 310h301v-121h-195l-10 -96q6 0 17 1t16 1q83 0 141 -48.5t58 -136.5q0 -92 -59.5 -147t-155.5 -55z" />
    <glyph glyph-name="six.numr" horiz-adv-x="600" 
d="M336 1186q75 0 125.5 -50t50.5 -137t-56 -142.5t-149 -55.5q-107 0 -163 71t-56 179v18q0 153 87.5 250t252.5 98l21 -117q-93 3 -146.5 -33.5t-73.5 -117.5q43 37 107 37zM307 911q36 0 57 23t21 59q0 40 -22.5 61t-59.5 21q-34 0 -56 -22t-22 -60q0 -35 21.5 -58.5
t60.5 -23.5z" />
    <glyph glyph-name="seven.numr" horiz-adv-x="563" 
d="M119 813l184 459h-215v121h389v-27l-219 -553h-139z" />
    <glyph glyph-name="eight.numr" horiz-adv-x="610" 
d="M305 791q-99 0 -159 48t-60 138q0 46 24.5 84.5t67.5 60.5q-65 49 -65 129q0 75 54 119.5t138 44.5t137.5 -44t53.5 -118q0 -84 -68 -129q45 -23 69.5 -62t24.5 -85q0 -90 -59.5 -138t-157.5 -48zM305 1174q27 0 44.5 18t17.5 45q0 29 -17 47.5t-45 18.5t-45.5 -18.5
t-17.5 -47.5q0 -28 17.5 -45.5t45.5 -17.5zM305 905q37 0 60.5 22.5t23.5 59.5t-24.5 60.5t-61.5 23.5q-38 0 -61 -23.5t-23 -60.5t24 -59.5t62 -22.5z" />
    <glyph glyph-name="nine.numr" horiz-adv-x="598" 
d="M291 1415q107 0 164 -71t57 -179v-18q0 -153 -87.5 -250t-252.5 -98l-20 116q92 -3 145.5 34t73.5 120q-42 -39 -107 -39q-77 0 -127.5 49.5t-50.5 137.5q0 87 56.5 142.5t148.5 55.5zM295 1141q36 0 58 22t22 60q0 35 -21.5 58.5t-60.5 23.5q-37 0 -57.5 -23t-20.5 -59
q0 -40 21.5 -61t58.5 -21z" />
    </font>
</defs>
</svg>
